<?xml version="1.0" standalone="no"?>
<!DOCTYPE svg PUBLIC "-//W3C//DTD SVG 1.1//EN" "http://www.w3.org/Graphics/SVG/1.1/DTD/svg11.dtd" >
<svg xmlns="http://www.w3.org/2000/svg">
<metadata>Generated by IcoMoon</metadata>
<defs>
<font id="Lumen-Linear-Icon-Font" horiz-adv-x="1024">
<font-face units-per-em="1024" ascent="960" descent="-64" />
<missing-glyph horiz-adv-x="1024" />
<glyph unicode="&#x20;" horiz-adv-x="512" d="" />
<glyph unicode="&#xe000;" glyph-name="danger" d="M511.99 327.381c-0.004 0-0.009 0-0.014 0-13.457 0-24.367 10.909-24.367 24.367 0 0.005 0 0.010 0 0.015v-0.001 356.571c0 13.465 10.916 24.381 24.381 24.381s24.381-10.916 24.381-24.381v0-356.571c0-0.004 0-0.009 0-0.014 0-13.457-10.909-24.367-24.367-24.367-0.005 0-0.010 0-0.015 0h0.001zM511.799 194.571c-0.127-0.003-0.276-0.004-0.426-0.004-3.199 0-6.229 0.721-8.938 2.009l0.126-0.054c-3.094 1.202-5.71 3.038-7.793 5.362l-0.017 0.019c-2.183 2.206-3.99 4.789-5.312 7.643l-0.069 0.167c-0.936 2.711-1.476 5.834-1.476 9.084 0 0.054 0 0.108 0 0.162v-0.008c-0.008 0.23-0.013 0.501-0.013 0.772 0 6.38 2.63 12.145 6.865 16.271l0.005 0.005c2.088 2.358 4.708 4.198 7.676 5.336l0.134 0.045c2.77 1.285 6.011 2.034 9.428 2.034 6.664 0 12.663-2.85 16.843-7.399l0.015-0.016c4.515-4.051 7.342-9.904 7.342-16.418 0-0.222-0.003-0.442-0.010-0.662l0.001 0.032c0.001-0.105 0.002-0.229 0.002-0.353 0-3.181-0.541-6.236-1.537-9.077l0.059 0.192c-1.546-3.029-3.505-5.611-5.841-7.795l-0.016-0.015c-2.002-2.445-4.63-4.306-7.642-5.345l-0.12-0.036c-2.508-1.238-5.461-1.963-8.583-1.963-0.247 0-0.493 0.005-0.738 0.014l0.035-0.001zM511.99 0c-255.839 0-463.238 207.399-463.238 463.238s207.399 463.238 463.238 463.238c255.839 0 463.238-207.399 463.238-463.238v0c-0.3-255.719-207.519-462.938-463.209-463.238h-0.029zM511.99 877.714c-228.909 0-414.476-185.567-414.476-414.476s185.567-414.476 414.476-414.476c228.909 0 414.476 185.567 414.476 414.476v0c-0.281 228.796-185.681 414.196-414.45 414.476h-0.027z" />
<glyph unicode="&#xe001;" glyph-name="error-outline" d="M512.384 293.041c0.043 0 0.085 0 0.085 0 13.184 0 23.893-10.709 23.893-23.893 0-0.043 0-0.085 0-0.085v0-48.981c0-0.043 0-0.128 0-0.171 0-6.741-2.688-12.843-6.997-17.365v0c-4.224-4.608-10.283-7.467-16.981-7.467s-12.757 2.859-16.981 7.467v0c-4.352 4.48-6.997 10.581-6.997 17.323 0 0.043 0 0.128 0 0.213v0 48.981c0 0.043 0 0.085 0 0.085 0 13.184 10.709 23.893 23.893 23.893 0.043 0 0.085 0 0.085 0v0zM512 731.441c0 0 0 0 0 0-13.44 0-24.363-10.923-24.363-24.363 0 0 0 0 0 0v0-292.565c0-13.483 10.923-24.363 24.363-24.363s24.363 10.923 24.363 24.363v0 292.565c0 0 0 0 0 0 0 13.44-10.923 24.363-24.363 24.363 0 0 0 0 0 0v0zM512 0.006c-255.829 0-463.232 207.403-463.232 463.232s207.403 463.232 463.232 463.232c255.829 0 463.232-207.403 463.232-463.232v0c-0.299-255.701-207.531-462.933-463.189-463.232h-0.043zM512 877.702c-228.907 0-414.464-185.557-414.464-414.464s185.557-414.464 414.464-414.464c228.907 0 414.464 185.557 414.464 414.464v0c-0.256 228.821-185.685 414.208-414.464 414.464h-0.043z" />
<glyph unicode="&#xe002;" glyph-name="warning2" d="M512 170.667c-0.004 0-0.009 0-0.014 0-13.457 0-24.367 10.909-24.367 24.367 0 0.005 0 0.010 0 0.015v-0.001 43.857c0 13.465 10.916 24.381 24.381 24.381s24.381-10.916 24.381-24.381v0-43.857c0-0.004 0-0.009 0-0.014 0-13.457-10.909-24.367-24.367-24.367-0.005 0-0.010 0-0.015 0h0.001zM512 331.571c-0.004 0-0.009 0-0.014 0-13.458 0-24.367 10.91-24.367 24.367 0 0.005 0 0.010 0 0.014v-0.001 243.81c0 13.465 10.916 24.381 24.381 24.381s24.381-10.916 24.381-24.381v0-243.81c0-0.004 0-0.009 0-0.014 0-13.458-10.91-24.367-24.367-24.367-0.005 0-0.010 0-0.014 0h0.001zM876.428 48.762h-733.762c-53.046 0.005-96.046 43.008-96.046 96.054 0 17.707 4.791 34.295 13.148 48.538l-0.245-0.452 368.762 637.193c16.677 28.852 47.382 47.954 82.549 47.954 0.209 0 0.418-0.001 0.626-0.002h0.159c0.129 0.001 0.281 0.001 0.433 0.001 35.282 0 66.072-19.228 82.465-47.777l0.245-0.463v-0.049l365-637.238c8.001-13.712 12.725-30.186 12.725-47.762 0-53.019-42.98-95.999-95.999-95.999-0.021 0-0.042 0-0.063 0h0.003zM511.429 829.286c-0.086 0.001-0.188 0.001-0.29 0.001-17.311 0-32.429-9.387-40.542-23.348l-0.12-0.224-368.762-637.193c-3.986-6.788-6.34-14.951-6.34-23.664 0-26.127 21.168-47.31 47.29-47.333h733.764c0.019 0 0.041 0 0.062 0 26.096 0 47.25 21.155 47.25 47.25 0 8.652-2.326 16.762-6.386 23.737l0.121-0.225-365 637.237c-8.175 14.289-23.328 23.763-40.694 23.763-0.091 0-0.182 0-0.273-0.001h0.014z" />
<glyph unicode="&#xe003;" glyph-name="add-alert" d="M794.818 588.068c1.952-13.167-7.801-25.357-20.967-27.307-13.652-1.464-25.842 8.289-27.307 21.455-10.241 85.333-69.241 157.012-154.086 186.759l-19.506 6.824 3.414 20.482c0.488 3.899 0.976 7.801 0.976 11.702 0 37.060-28.771 67.292-63.878 67.292-35.11 0-63.393-30.232-63.393-67.292 0-2.926 0-6.339 0.488-9.265l2.438-20.479-19.503-5.851c-98.988-30.72-165.304-117.518-165.304-216.503 0-144.336-80.943-241.86-139.946-313.054-9.753-11.702-18.53-22.917-26.818-33.158 22.429-14.14 104.836-34.619 267.702-47.298 5.851-0.488 11.702-0.976 18.042-0.976 1.461-0.488 2.926-0.488 4.39-0.488 13.652-0.973 23.893-12.679 22.917-25.842-0.488-7.804-4.875-14.631-10.726-18.042 5.851-24.869 21.452-44.863 45.833-57.054 12.19-5.851 17.068-20.479 11.217-32.67-4.39-8.777-13.167-13.652-21.943-13.652-3.902 0-7.315 0.973-10.726 2.438-39.985 19.991-66.807 55.586-73.631 98.497-280.869 22.432-297.449 65.342-303.301 79.97-2.438 7.315-6.827 25.357 10.729 43.887 7.801 9.753 18.042 22.429 28.768 35.107 57.539 69.244 128.732 155.551 128.732 282.333 0 114.101 72.167 215.039 181.881 256.973 2.44 61.44 51.688 111.179 112.155 111.179 61.926 0 112.64-52.176 112.64-115.565 93.134-39.985 157.012-122.881 168.714-220.405zM755.81 487.619c-147.75 0-268.19-120.44-268.19-268.19s120.44-268.19 268.19-268.19 268.19 120.44 268.19 268.19-120.44 268.19-268.19 268.19zM755.81 0c-120.929 0-219.429 98.5-219.429 219.429s98.5 219.429 219.429 219.429 219.429-98.5 219.429-219.429-98.5-219.429-219.429-219.429zM780.292 97.718c0.004-13.793-11.032-24.829-24.488-24.488-6.89 0.004-12.753 2.416-17.236 6.899s-7.239 10.691-7.248 17.585l0.008 97.236-97.236-0.008c-6.894 0.008-13.103 2.765-17.585 7.248s-6.894 10.346-6.898 17.236c-0.341 13.456 10.695 24.492 24.488 24.488l97.231-0.004-0.004 97.231c-0.004 13.793 11.032 24.829 24.488 24.488 13.448 0.341 24.479-10.691 24.484-24.484l-0.008-97.236 97.236 0.008c13.793-0.004 24.824-11.036 24.484-24.484 0.341-13.456-10.695-24.492-24.488-24.488l-97.231 0.004 0.004-97.231z" />
<glyph unicode="&#xe01d;" glyph-name="equalizer" d="M887.191 0.049h-165.191c-21.688 0.022-39.264 17.598-39.286 39.283v555.287c0.022 21.688 17.598 39.264 39.283 39.286h165.193c21.688-0.022 39.263-17.598 39.286-39.283v-555.288c-0.022-21.688-17.598-39.263-39.283-39.285h-0.002zM731.476 48.811h146.238v536.332h-146.237zM887.191 585.143v0zM302-0.049h-165.095c-21.74 0.026-39.356 17.642-39.381 39.38v360.145c0.026 21.739 17.642 39.356 39.379 39.381h165.050c21.679-0.074 39.247-17.574 39.429-39.221v-360.303c-0.025-21.74-17.642-39.356-39.379-39.382h-0.003zM146.286 48.713h146.334v341.382h-146.334zM301.952 390.095v0zM594.571 0h-165.143c-21.707 0.041-39.292 17.627-39.333 39.329v799.052c0.041 21.707 17.627 39.292 39.329 39.333h165.147c21.707-0.041 39.292-17.627 39.333-39.329v-799.052c-0.041-21.707-17.627-39.292-39.329-39.333h-0.004zM438.857 48.762h146.286v780.19h-146.286z" />
<glyph unicode="&#xe033;" glyph-name="not-interested" d="M839.68 790.918c-83.817 83.757-199.578 135.558-327.438 135.558-255.839 0-463.238-207.399-463.238-463.238s207.399-463.238 463.238-463.238c127.859 0 243.62 51.801 327.44 135.561l-0.003-0.003c83.62 83.971 135.316 199.788 135.316 327.68s-51.696 243.71-135.332 327.696l0.016-0.016zM218.941 170.179c-74.989 74.81-121.383 178.254-121.383 292.534 0 106.050 39.952 202.769 105.626 275.926l-0.339-0.384 584.179-584.168c-72.775-65.337-169.495-105.289-275.547-105.289-114.28 0-217.725 46.393-292.528 121.373l-0.008 0.008zM821.155 188.221l-584.179 584.168c72.767 65.357 169.492 105.325 275.551 105.325 114.286 0 217.732-46.408 292.522-121.407l0.010-0.010c74.989-74.81 121.383-178.254 121.383-292.534 0-106.050-39.952-202.769-105.626-275.926l0.339 0.384z" />
<glyph unicode="&#xe03b;" glyph-name="playlist-add" d="M945.448 29.79c48.533 48.533 78.551 115.581 78.551 189.639 0 148.118-120.073 268.19-268.19 268.19s-268.19-120.073-268.19-268.19c0-74.059 30.018-141.107 78.551-189.64v0c48.585-48.42 115.616-78.357 189.639-78.357s141.054 29.937 189.647 78.364l-0.007-0.007zM600.649 374.589c39.709 39.708 94.565 64.268 155.158 64.268 121.187 0 219.429-98.242 219.429-219.429s-98.242-219.429-219.429-219.429c-60.593 0-115.45 24.56-155.159 64.268v0c-39.629 39.745-64.133 94.591-64.133 155.16s24.504 115.415 64.138 155.166l-0.005-0.005zM902.095 219.428c0.001-0.071 0.001-0.154 0.001-0.238 0-13.334-10.81-24.144-24.144-24.144-0.084 0-0.167 0-0.251 0.001h-97.511v-97.524c0-13.465-10.916-24.381-24.381-24.381s-24.381 10.916-24.381 24.381v0 97.524h-97.524c-13.465 0-24.381 10.916-24.381 24.381s10.916 24.381 24.381 24.381v0h97.524v97.524c0 13.465 10.916 24.381 24.381 24.381s24.381-10.916 24.381-24.381v0-97.524h97.524c0.071 0.001 0.155 0.001 0.24 0.001 13.334 0 24.143-10.809 24.143-24.143 0-0.084 0-0.168-0.001-0.252v0.013zM414.476 146.286h-24.381c-13.465 0-24.381 10.916-24.381 24.381s10.916 24.381 24.381 24.381v0h24.381c13.465 0 24.381-10.916 24.381-24.381s-10.916-24.381-24.381-24.381v0zM463.238 438.857h-73.143c-13.465 0-24.381 10.916-24.381 24.381s10.916 24.381 24.381 24.381v0h73.143c13.465 0 24.381-10.916 24.381-24.381s-10.916-24.381-24.381-24.381v0zM902.095 731.428h-512c-13.465 0-24.381 10.916-24.381 24.381s10.916 24.381 24.381 24.381v0h512c13.465 0 24.381-10.916 24.381-24.381s-10.916-24.381-24.381-24.381v0zM195.048 658.286c-53.861 0-97.524 43.663-97.524 97.524s43.663 97.524 97.524 97.524c53.861 0 97.524-43.663 97.524-97.524v0c-0.072-53.832-43.692-97.452-97.517-97.524h-0.007zM195.048 804.571c-26.93 0-48.762-21.831-48.762-48.762s21.831-48.762 48.762-48.762c26.93 0 48.762 21.831 48.762 48.762v0c-0.019 26.923-21.839 48.743-48.76 48.762h-0.002zM195.048 365.714c-53.861 0-97.524 43.663-97.524 97.524s43.663 97.524 97.524 97.524c53.861 0 97.524-43.663 97.524-97.524v0c-0.072-53.832-43.692-97.452-97.517-97.524h-0.007zM195.048 512c-26.93 0-48.762-21.831-48.762-48.762s21.831-48.762 48.762-48.762c26.93 0 48.762 21.831 48.762 48.762v0c-0.019 26.923-21.839 48.743-48.76 48.762h-0.002zM195.048 73.143c-53.861 0-97.524 43.663-97.524 97.524s43.663 97.524 97.524 97.524c53.861 0 97.524-43.663 97.524-97.524v0c-0.072-53.832-43.692-97.452-97.517-97.524h-0.007zM195.048 219.428c-26.93 0-48.762-21.831-48.762-48.762s21.831-48.762 48.762-48.762c26.93 0 48.762 21.831 48.762 48.762v0c-0.019 26.923-21.839 48.743-48.76 48.762h-0.002z" />
<glyph unicode="&#xe03c;" glyph-name="queue" d="M585.143 731.428c0.004 0 0.009 0 0.014 0 13.457 0 24.367-10.909 24.367-24.367 0-0.005 0-0.010 0-0.015v0.001-146.286h146.286c13.465 0 24.381-10.916 24.381-24.381s-10.916-24.381-24.381-24.381v0h-146.286v-146.286c0-13.465-10.916-24.381-24.381-24.381s-24.381 10.916-24.381 24.381v0 146.286h-146.286c-13.465 0-24.381 10.916-24.381 24.381s10.916 24.381 24.381 24.381v0h146.286v146.286c0 0.004 0 0.009 0 0.014 0 13.457 10.909 24.367 24.367 24.367 0.005 0 0.010 0 0.015 0h-0.001zM73.143 779.215c0.004 0 0.009 0 0.014 0 13.457 0 24.367-10.909 24.367-24.367 0-0.005 0-0.010 0-0.015v0.001-607.573c0.064-54.366 44.112-98.422 98.469-98.499h607.626c13.465 0 24.381-10.916 24.381-24.381s-10.916-24.381-24.381-24.381v0h-607.619c-81.283 0.104-147.147 65.975-147.238 147.252v607.582c0 0.004 0 0.009 0 0.014 0 13.457 10.909 24.367 24.367 24.367 0.005 0 0.010 0 0.015 0h-0.001zM328.666 926.476h512.953c73.758-0.094 133.525-59.861 133.619-133.61v-512.962c-0.094-73.758-59.861-133.525-133.61-133.619h-512.962c-73.758 0.094-133.525 59.861-133.619 133.61v512.962c0.094 73.758 59.861 133.525 133.61 133.619h0.009zM841.619 195.048c46.845 0.049 84.808 38.011 84.857 84.852v512.958c-0.049 46.845-38.011 84.808-84.852 84.857h-512.958c-46.845-0.049-84.808-38.011-84.857-84.852v-512.958c0.049-46.845 38.011-84.808 84.852-84.857h0.005z" />
<glyph unicode="&#xe040;" glyph-name="repeat" d="M828.952 804.571v-195.048c0.001-0.071 0.001-0.155 0.001-0.24 0-13.334-10.809-24.143-24.143-24.143-0.084 0-0.168 0-0.252 0.001h-195.035c-13.465 0-24.381 10.916-24.381 24.381s10.916 24.381 24.381 24.381v0h138.488c-53.779 72.501-139.091 118.976-235.259 118.976-148.767 0-271.557-111.22-289.758-255.046l-0.149-1.442c-1.458-11.867-11.476-20.966-23.618-20.966-0.097 0-0.193 0.001-0.29 0.002h-3.403c-12.010 1.615-21.174 11.798-21.174 24.122 0 1.124 0.076 2.23 0.224 3.314l-0.014-0.126c21.528 169.318 164.691 298.904 338.121 298.904 108.161 0 204.55-50.402 266.96-129.001l0.538-0.702v132.632c0 13.465 10.916 24.381 24.381 24.381s24.381-10.916 24.381-24.381v0zM848.94 423.738c-21.758-169.36-165.029-298.905-338.557-298.905-107.576 0-203.523 49.787-266.058 127.575l-0.516 0.663v-131.167c0-13.465-10.916-24.381-24.381-24.381s-24.381 10.916-24.381 24.381v0 195.048c-0.001 0.071-0.001 0.155-0.001 0.24 0 13.334 10.809 24.143 24.143 24.143 0.084 0 0.168 0 0.252-0.001h195.035c13.465 0 24.381-10.916 24.381-24.381s-10.916-24.381-24.381-24.381v0h-138.976c53.779-72.501 139.091-118.976 235.259-118.976 148.767 0 271.557 111.22 289.758 255.046l0.149 1.442c1.221 11.959 11.239 21.211 23.418 21.211 1.2 0 2.379-0.090 3.531-0.263l-0.13 0.016c12.238-1.398 21.656-11.696 21.656-24.193 0-1.099-0.073-2.181-0.214-3.241l0.014 0.124z" />
<glyph unicode="&#xe042;" glyph-name="replay" d="M519.381 105.429c-0.201 0-0.439-0.001-0.676-0.001-164.408 0-302.49 112.718-341.181 265.091l-0.524 2.434c-0.466 1.783-0.734 3.829-0.734 5.938 0 13.465 10.916 24.381 24.381 24.381 11.415 0 20.997-7.844 23.651-18.437l0.036-0.168c34.056-133.444 153.188-230.541 294.998-230.541 167.899 0 304.009 136.109 304.009 304.009s-136.109 304.009-304.009 304.009c-101.86 0-192.019-50.095-247.185-126.992l-0.622-0.912-0.238-0.334h167.571c13.465 0 24.381-10.916 24.381-24.381s-10.916-24.381-24.381-24.381v0h-219.429c-0.004 0-0.009 0-0.014 0-13.457 0-24.367 10.909-24.367 24.367 0 0.005 0 0.010 0 0.015v-0.001 219.429c0 13.465 10.916 24.381 24.381 24.381s24.381-10.916 24.381-24.381v0-150.524c65.187 81.059 164.355 132.496 275.536 132.496 194.818 0 352.748-157.931 352.748-352.748 0-194.805-157.911-352.728-352.711-352.748h-0.002z" />
<glyph unicode="&#xe05f;" glyph-name="playlist-play" d="M945.448 29.79c48.533 48.533 78.551 115.581 78.551 189.639 0 148.118-120.073 268.19-268.19 268.19s-268.19-120.073-268.19-268.19c0-74.059 30.018-141.107 78.551-189.64v0c48.585-48.42 115.616-78.357 189.639-78.357s141.054 29.937 189.647 78.364l-0.007-0.007zM600.649 374.589c39.709 39.708 94.565 64.268 155.158 64.268 121.187 0 219.429-98.242 219.429-219.429s-98.242-219.429-219.429-219.429c-60.593 0-115.45 24.56-155.159 64.268v0c-39.629 39.745-64.133 94.591-64.133 155.16s24.504 115.415 64.138 155.166l-0.005-0.005zM707.048 92.762c-0.033 0-0.072 0-0.112 0-8.615 0-16.701 2.26-23.7 6.22l0.24-0.125c-15.128 8.469-25.187 24.393-25.19 42.666v0 155.81c0.014 26.925 21.844 48.746 48.771 48.746 9.579 0 18.512-2.761 26.048-7.531l-0.2 0.118 124.619-77.904c13.871-8.741 22.952-23.977 22.952-41.334s-9.081-32.593-22.751-41.215l-0.201-0.118-124.667-77.904c-7.299-4.661-16.199-7.429-25.745-7.429-0.023 0-0.046 0-0.069 0h0.004zM831.809 219.524l-124.762 77.81v-155.81l124.667 77.954zM414.476 146.286h-24.381c-13.465 0-24.381 10.916-24.381 24.381s10.916 24.381 24.381 24.381v0h24.381c13.465 0 24.381-10.916 24.381-24.381s-10.916-24.381-24.381-24.381v0zM463.238 437.819h-73.143c-13.465 0-24.381 10.916-24.381 24.381s10.916 24.381 24.381 24.381v0h73.143c13.465 0 24.381-10.916 24.381-24.381s-10.916-24.381-24.381-24.381v0zM902.095 731.428h-512c-13.465 0-24.381 10.916-24.381 24.381s10.916 24.381 24.381 24.381v0h512c13.465 0 24.381-10.916 24.381-24.381s-10.916-24.381-24.381-24.381v0zM195.048 657.248c-53.861 0-97.524 43.663-97.524 97.524s43.663 97.524 97.524 97.524c53.861 0 97.524-43.663 97.524-97.524v0c-0.072-53.832-43.692-97.452-97.517-97.524h-0.007zM195.048 803.534c-26.93 0-48.762-21.831-48.762-48.762s21.831-48.762 48.762-48.762c26.93 0 48.762 21.831 48.762 48.762v0c-0.019 26.923-21.839 48.743-48.76 48.762h-0.002zM195.048 364.677c-53.861 0-97.524 43.663-97.524 97.524s43.663 97.524 97.524 97.524c53.861 0 97.524-43.663 97.524-97.524v0c-0.072-53.832-43.692-97.452-97.517-97.524h-0.007zM195.048 510.962c-26.93 0-48.762-21.831-48.762-48.762s21.831-48.762 48.762-48.762c26.93 0 48.762 21.831 48.762 48.762v0c-0.019 26.923-21.839 48.743-48.76 48.762h-0.002zM195.048 72.105c-53.861 0-97.524 43.663-97.524 97.524s43.663 97.524 97.524 97.524c53.861 0 97.524-43.663 97.524-97.524v0c-0.072-53.832-43.692-97.452-97.517-97.524h-0.007zM195.048 218.391c-26.93 0-48.762-21.831-48.762-48.762s21.831-48.762 48.762-48.762c26.93 0 48.762 21.831 48.762 48.762v0c-0.019 26.923-21.839 48.743-48.76 48.762h-0.002z" />
<glyph unicode="&#xe0b8;" glyph-name="clear-all" d="M390.095 658.286c-53.861 0-97.524 43.663-97.524 97.524s43.663 97.524 97.524 97.524c53.861 0 97.524-43.663 97.524-97.524v0c-0.072-53.832-43.692-97.452-97.517-97.524h-0.007zM390.095 804.571c-26.93 0-48.762-21.831-48.762-48.762s21.831-48.762 48.762-48.762c26.93 0 48.762 21.831 48.762 48.762v0c-0.019 26.923-21.839 48.743-48.76 48.762h-0.002zM292.571 365.714c-53.861 0-97.524 43.663-97.524 97.524s43.663 97.524 97.524 97.524c53.861 0 97.524-43.663 97.524-97.524v0c-0.072-53.832-43.692-97.452-97.517-97.524h-0.007zM292.571 512c-26.93 0-48.762-21.831-48.762-48.762s21.831-48.762 48.762-48.762c26.93 0 48.762 21.831 48.762 48.762v0c-0.019 26.923-21.839 48.743-48.76 48.762h-0.002zM195.048 73.143c-53.861 0-97.524 43.663-97.524 97.524s43.663 97.524 97.524 97.524c53.861 0 97.524-43.663 97.524-97.524v0c-0.072-53.832-43.692-97.452-97.517-97.524h-0.007zM195.048 219.428c-26.93 0-48.762-21.831-48.762-48.762s21.831-48.762 48.762-48.762c26.93 0 48.762 21.831 48.762 48.762v0c-0.019 26.923-21.839 48.743-48.76 48.762h-0.002zM902.095 731.428h-316.952c-13.465 0-24.381 10.916-24.381 24.381s10.916 24.381 24.381 24.381v0h316.952c13.465 0 24.381-10.916 24.381-24.381s-10.916-24.381-24.381-24.381v0zM804.571 438.857h-316.952c-13.465 0-24.381 10.916-24.381 24.381s10.916 24.381 24.381 24.381v0h316.952c13.465 0 24.381-10.916 24.381-24.381s-10.916-24.381-24.381-24.381v0zM707.048 146.286h-316.952c-13.465 0-24.381 10.916-24.381 24.381s10.916 24.381 24.381 24.381v0h316.952c13.465 0 24.381-10.916 24.381-24.381s-10.916-24.381-24.381-24.381v0z" />
<glyph unicode="&#xe0b9;" glyph-name="comment" d="M230.952-0.762c-0.018 0-0.039 0-0.060 0-20.296 0-36.75 16.453-36.75 36.75 0 0.038 0 0.075 0 0.113v-0.006l23.476 158.953h-69.857c-0.65-0.016-1.416-0.025-2.184-0.025-53.426 0-96.745 43.275-96.816 96.684v535.626c0.030 54.693 44.318 99.031 98.989 99.143h730.012c53.95-0.535 97.478-44.394 97.478-98.419 0-0.255-0.001-0.509-0.003-0.763v0.039-535.619c0.001-0.188 0.002-0.409 0.002-0.631 0-53.045-43.001-96.046-96.046-96.046-0.503 0-1.006 0.004-1.507 0.012l0.076-0.001h-347.668l-278-189.524c-5.977-3.896-13.282-6.233-21.129-6.285h-0.014zM147.762 877.714c-27.762-0.076-50.238-22.599-50.238-50.371 0-0.003 0-0.007 0-0.010v0.001-535.619c0.366-26.55 21.974-47.933 48.577-47.933 0.584 0 1.166 0.010 1.745 0.031l-0.084-0.002h98.096c0.003 0 0.007 0 0.011 0 13.449 0 24.352-10.903 24.352-24.352 0-1.27-0.097-2.518-0.285-3.736l0.017 0.136-23.096-154.905 261.998 178.619c3.836 2.653 8.587 4.238 13.709 4.238 0.003 0 0.006 0 0.009 0h355.191c0.439-0.015 0.954-0.023 1.472-0.023 26.093 0 47.246 21.153 47.246 47.246 0 0.24-0.002 0.479-0.005 0.717v-0.036 535.619c0.012 0.4 0.018 0.871 0.018 1.343 0 26.975-21.781 48.863-48.715 49.037h-0.017zM804.571 633.905h-585.143c-13.465 0-24.381 10.916-24.381 24.381s10.916 24.381 24.381 24.381v0h585.143c13.465 0 24.381-10.916 24.381-24.381s-10.916-24.381-24.381-24.381v0zM804.571 536.381h-585.143c-13.465 0-24.381 10.916-24.381 24.381s10.916 24.381 24.381 24.381v0h585.143c13.465 0 24.381-10.916 24.381-24.381s-10.916-24.381-24.381-24.381v0zM609.524 438.857h-390.095c-13.465 0-24.381 10.916-24.381 24.381s10.916 24.381 24.381 24.381v0h390.095c13.465 0 24.381-10.916 24.381-24.381s-10.916-24.381-24.381-24.381v0z" />
<glyph unicode="&#xe0c6;" glyph-name="live-help" d="M512 0c-8.421 0.013-15.843 4.282-20.23 10.771l-0.055 0.086-90.287 135.428h-170.286c-73.758 0.094-133.525 59.861-133.619 133.61v464.2c0.094 73.758 59.861 133.525 133.61 133.619h561.724c73.758-0.094 133.525-59.861 133.619-133.61v-464.2c-0.094-73.758-59.861-133.525-133.61-133.619h-170.295l-90.287-135.428c-4.442-6.575-11.864-10.844-20.283-10.857h-0.002zM231.143 828.952c-46.849-0.041-84.816-38.008-84.857-84.853v-464.195c0.041-46.849 38.008-84.816 84.853-84.857h183.337c8.421-0.013 15.843-4.282 20.23-10.771l0.055-0.086 77.239-115.858 77.239 115.858c4.442 6.575 11.864 10.844 20.283 10.857h183.336c46.849 0.041 84.816 38.008 84.857 84.853v464.195c-0.041 46.849-38.008 84.816-84.853 84.857h-0.004zM511.286 390.095c-0.004 0-0.009 0-0.014 0-13.457 0-24.367 10.909-24.367 24.367 0 0.005 0 0.010 0 0.015v-0.001 37.048c0.322 14.852 6.128 28.29 15.466 38.422l-0.037-0.041c7.647 8.361 15.933 15.877 24.871 22.573l0.463 0.332q13.072 9.928 28.526 21.048c9.045 6.608 16.981 13.773 24.117 21.674l0.121 0.136c6.902 7.684 12.7 16.548 17.029 26.215l0.257 0.642c4.056 9.542 6.413 20.639 6.413 32.288 0 0.82-0.012 1.638-0.035 2.453l0.003-0.12c0.013 0.466 0.020 1.014 0.020 1.564 0 10.234-2.471 19.89-6.85 28.405l0.163-0.349c-4.652 9.051-10.897 16.651-18.436 22.705l-0.135 0.105c-7.995 6.406-17.35 11.53-27.516 14.866l-0.626 0.178c-10.433 3.544-22.451 5.589-34.947 5.589-18.413 0-35.789-4.442-51.114-12.312l0.63 0.294c-7.498-3.829-13.941-7.974-19.928-12.674l0.261 0.197c-6.571-5.19-20.667-18.714-25.762-23.905-4.44-4.592-10.655-7.442-17.536-7.442-13.465 0-24.381 10.916-24.381 24.381 0 6.644 2.658 12.668 6.968 17.065l-0.004-0.004c6.046 6.238 22.81 22.143 30.525 28.19 8.071 6.38 17.152 12.235 26.776 17.181l0.938 0.438c21.152 10.915 46.164 17.315 72.671 17.315 17.961 0 35.236-2.938 51.371-8.361l-1.137 0.331c16.63-5.526 31.040-13.465 43.66-23.549l-0.279 0.215c12.839-10.378 23.328-23.103 30.925-37.584l0.313-0.654c7.69-14.707 12.202-32.124 12.202-50.595 0-0.561-0.004-1.121-0.012-1.68l0.001 0.085c0.014-0.723 0.022-1.575 0.022-2.429 0-18.859-3.932-36.799-11.022-53.046l0.333 0.856c-6.82-15.243-15.428-28.35-25.787-39.849l0.12 0.135c-9.537-10.451-19.931-19.803-31.176-28.066l-0.586-0.411c-10.094-7.238-19.238-14.048-27.714-20.431-6.821-5.079-12.833-10.501-18.301-16.434l-0.082-0.090c-1.773-1.652-2.906-3.971-3-6.554v-36.345c0-0.004 0-0.009 0-0.014 0-13.457-10.909-24.367-24.367-24.367-0.005 0-0.009 0-0.014 0h0.001zM548.571 304.762c0-20.198-16.374-36.571-36.571-36.571s-36.571 16.374-36.571 36.571c0 20.198 16.374 36.571 36.571 36.571s36.571-16.374 36.571-36.571z" />
<glyph unicode="&#xe0cd;" glyph-name="phone" d="M759.083 1.841c-59.435 0-244.651 20.267-466.005 241.621-189.611 189.568-259.2 330.667-240.341 487.040 14.379 64.939 45.824 121.045 89.344 165.163l-0.043-0.043c17.109 17.365 40.747 28.288 66.901 28.8h0.085c0.341 0 0.725 0 1.109 0 25.643 0 48.896-10.197 65.92-26.795v0c1.28-1.28 2.432-2.731 3.413-4.267l0.043-0.085 102.272-164.651c15.317-16.811 24.661-39.211 24.661-63.829 0-26.581-10.923-50.645-28.544-67.883v0l-43.52-43.477c-2.005-2.005-3.243-4.779-3.243-7.851 0-3.029 1.195-5.76 3.157-7.723v0c56.619-57.387 196.053-196.864 253.44-253.397 2.005-1.963 4.736-3.2 7.765-3.2s5.803 1.237 7.808 3.243v0l43.435 43.477c17.28 17.621 41.344 28.587 67.925 28.587 24.576 0 46.976-9.344 63.872-24.661l-0.085 0.085 164.651-102.272c1.664-1.067 3.072-2.219 4.395-3.499v0c16.683-17.237 26.965-40.704 26.965-66.603 0-26.795-11.008-51.029-28.757-68.437v0c-3.456-3.541-88.277-88.533-168.235-88.533-5.12-0.512-11.093-0.811-17.152-0.811-0.427 0-0.853 0-1.28 0h0.085zM210.816 875.697h-0.896c-13.056-0.299-24.789-5.717-33.28-14.379v0c-35.968-36.693-62.336-82.901-75.093-134.528l-0.427-2.005c-16.853-139.776 48.725-269.184 226.389-446.848 244.395-244.352 439.253-227.541 447.403-226.688 54.144 10.027 100.864 36.565 135.979 74.155l0.128 0.128c8.875 8.704 14.379 20.779 14.379 34.176 0 11.52-4.053 22.059-10.837 30.336l0.085-0.085-164.139 102.016c-1.621 1.067-3.029 2.176-4.309 3.413v0c-8.235 7.723-19.328 12.501-31.573 12.501-13.141 0-25.003-5.504-33.408-14.336v0l-43.477-43.477c-10.837-10.795-25.813-17.451-42.283-17.451-16.341 0-31.147 6.528-41.984 17.109v0c-57.472 56.704-197.205 196.395-253.909 253.867-10.624 10.837-17.152 25.643-17.152 42.027 0 16.512 6.656 31.445 17.451 42.325v0l43.563 43.477c8.832 8.405 14.336 20.267 14.336 33.365 0 12.245-4.779 23.339-12.544 31.573v-0.043c-1.28 1.28-2.432 2.731-3.413 4.267l-0.043 0.085-102.016 164.181c-7.595 6.699-17.579 10.752-28.544 10.752-0.128 0-0.256 0-0.384 0v0z" />
<glyph unicode="&#xe0e0;" glyph-name="import-contacts" d="M814.324 926.476h-653.407c-0.037 0-0.081 0-0.125 0-34.942 0-63.268-28.326-63.268-63.268 0-0.043 0-0.086 0-0.13v0.007-799.695c0-0.037 0-0.080 0-0.123 0-34.942 28.326-63.268 63.268-63.268 0.044 0 0.088 0 0.132 0h653.4c0.037 0 0.080 0 0.123 0 34.942 0 63.268 28.326 63.268 63.268 0 0.043 0 0.086 0 0.13v-0.007 799.695c0 0.037 0 0.080 0 0.123 0 34.942-28.326 63.268-63.268 63.268-0.043 0-0.086 0-0.13 0h0.007zM146.286 63.39v799.695c-0.002 0.079-0.002 0.173-0.002 0.267 0 7.933 6.431 14.364 14.364 14.364 0.095 0 0.189-0.001 0.283-0.003h34.117v-828.952h-34.131c-0.080-0.002-0.175-0.003-0.269-0.003-7.933 0-14.364 6.431-14.364 14.364 0 0.094 0.001 0.187 0.003 0.281v-0.014zM828.952 63.39c0.002-0.079 0.002-0.173 0.002-0.267 0-7.933-6.431-14.364-14.364-14.364-0.094 0-0.187 0.001-0.281 0.003h-570.5v828.952h570.514c0.079 0.002 0.173 0.002 0.267 0.002 7.933 0 14.364-6.431 14.364-14.364 0-0.094-0.001-0.187-0.003-0.281v0.014zM921.619 682.667c-13.465 0-24.381 10.916-24.381 24.381s10.916 24.381 24.381 24.381v0c2.685 0.014 4.856 2.194 4.857 4.881v0 87.762c-0.001 2.687-2.172 4.867-4.856 4.881h-0.001c-13.465 0-24.381 10.916-24.381 24.381s10.916 24.381 24.381 24.381v0c29.604-0.042 53.591-24.036 53.619-53.64v-87.765c-0.028-29.606-24.015-53.601-53.615-53.643h-0.004zM921.619 438.857c-13.465 0-24.381 10.916-24.381 24.381s10.916 24.381 24.381 24.381v0c2.685 0.014 4.856 2.194 4.857 4.881v0 87.762c-0.001 2.687-2.172 4.867-4.856 4.881h-0.001c-13.465 0-24.381 10.916-24.381 24.381s10.916 24.381 24.381 24.381v0c29.604-0.042 53.591-24.036 53.619-53.64v-87.765c-0.028-29.606-24.015-53.601-53.615-53.643h-0.004zM921.619 195.048c-13.465 0-24.381 10.916-24.381 24.381s10.916 24.381 24.381 24.381v0c2.685 0.014 4.856 2.194 4.857 4.881v0 87.762c-0.001 2.687-2.172 4.867-4.856 4.881h-0.001c-13.465 0-24.381 10.916-24.381 24.381s10.916 24.381 24.381 24.381v0c29.604-0.042 53.591-24.036 53.619-53.64v-87.765c-0.028-29.606-24.015-53.601-53.615-53.643h-0.004zM689.714 243.976h-354.048c-0.013 0-0.029 0-0.044 0-23.014 0-41.67 18.657-41.67 41.67 0 0.702 0.017 1.4 0.052 2.094l-0.004-0.098c0.238 5.405 0.952 11.143 1.905 18.476 11.714 66.024 38.429 76.381 117.571 107.095l18.383 7.143c-24.122 38.91-38.894 85.856-40.139 136.159l-0.007 0.341c0 53.953 12.476 125.691 120.238 125.691 109.191 0 121.81-71.834 121.81-125.857-1.486-50.615-16.167-97.508-40.699-137.734l0.699 1.234 21.571-9.238c76.714-29.595 102.572-39.571 113.81-102.809 1.191-8.715 1.95-14.667 2.238-20.285 0.037-0.655 0.058-1.422 0.058-2.193 0-23.023-18.664-41.688-41.688-41.688-0.013 0-0.026 0-0.039 0h0.002zM682.714 285.309v0zM343.332 292.738h338.667c-0.286 2.357-0.619 4.928-1 7.809-6.144 34.214-8.476 36.072-83.19 64.929l-23.476 9.095c-19.060 6.62-32.498 24.426-32.498 45.371 0 2.051 0.129 4.072 0.379 6.056l-0.024-0.236 0.619 6.976 4.19 5.572c22.723 33.261 36.744 74.065 37.993 118.066l0.007 0.314c0 59.072-17.048 77.095-73.048 77.095-55.429 0-71.476-17.262-71.476-76.929 1.25-44.185 15.237-84.867 38.398-118.788l-0.492 0.764 4.19-5.572 0.619-6.976c0.254-1.832 0.398-3.949 0.398-6.099 0-20.576-13.252-38.058-31.688-44.374l-0.33-0.098-20.476-7.976c-78.048-30.262-80.476-32.166-86.905-68.143-0.284-2.476-0.617-4.738-0.856-6.857z" />
<glyph unicode="&#xe145;" glyph-name="add" d="M926.464 463.238c0-0.085 0-0.171 0-0.256 0-13.355-10.795-24.149-24.149-24.149-0.085 0-0.171 0-0.256 0h-365.696v-365.696c0-13.483-10.923-24.363-24.363-24.363s-24.363 10.923-24.363 24.363v0 365.696h-365.696c-13.483 0-24.363 10.923-24.363 24.363s10.923 24.363 24.363 24.363v0h365.696v365.696c0 13.483 10.923 24.363 24.363 24.363s24.363-10.923 24.363-24.363v0-365.696h365.696c0.085 0 0.171 0 0.256 0 13.355 0 24.149-10.795 24.149-24.149 0-0.085 0-0.171 0-0.256v0z" />
<glyph unicode="&#xe146;" glyph-name="add-box" d="M512 195.035c0 0 0 0 0 0-13.44 0-24.363 10.923-24.363 24.363 0 0 0 0 0 0v0 219.435h-219.435c-13.483 0-24.363 10.923-24.363 24.363s10.923 24.363 24.363 24.363v0h219.435v219.435c0 13.483 10.923 24.363 24.363 24.363s24.363-10.923 24.363-24.363v0-219.435h219.435c13.483 0 24.363-10.923 24.363-24.363s-10.923-24.363-24.363-24.363v0h-219.435v-219.435c0 0 0 0 0 0 0-13.44-10.923-24.363-24.363-24.363 0 0 0 0 0 0v0zM827.989 0.006h-632.021c-81.28 0.085-147.157 65.963-147.243 147.243v631.979c0.085 81.28 65.963 147.157 147.243 147.243h632.021c81.28-0.085 147.157-65.963 147.243-147.243v-631.979c-0.085-81.28-65.963-147.157-147.243-147.243v0zM196.011 877.702c-54.357-0.085-98.432-44.117-98.475-98.475v-631.979c0.085-54.357 44.117-98.432 98.475-98.517h632.021c54.357 0.085 98.432 44.117 98.475 98.475v631.979c-0.085 54.357-44.117 98.432-98.475 98.517v0z" />
<glyph unicode="&#xe147;" glyph-name="add-circle" d="M512 0.006c-255.829 0-463.232 207.403-463.232 463.232s207.403 463.232 463.232 463.232c255.829 0 463.232-207.403 463.232-463.232v0c-0.299-255.701-207.531-462.933-463.189-463.232h-0.043zM512 877.702c-228.907 0-414.464-185.557-414.464-414.464s185.557-414.464 414.464-414.464c228.907 0 414.464 185.557 414.464 414.464v0c-0.256 228.779-185.685 414.208-414.464 414.464h-0.043zM512 195.035c0 0 0 0 0 0-13.44 0-24.363 10.923-24.363 24.363 0 0 0 0 0 0v0 219.435h-219.435c-13.483 0-24.363 10.923-24.363 24.363s10.923 24.363 24.363 24.363v0h219.435v219.435c0 13.483 10.923 24.363 24.363 24.363s24.363-10.923 24.363-24.363v0-219.435h219.435c13.483 0 24.363-10.923 24.363-24.363s-10.923-24.363-24.363-24.363v0h-219.435v-219.435c0 0 0 0 0 0 0-13.44-10.923-24.363-24.363-24.363 0 0 0 0 0 0v0z" />
<glyph unicode="&#xe149;" glyph-name="archive" d="M512.128 144.219h-0.043c0 0 0 0 0 0-17.664 0-33.451 7.936-44.075 20.395l-0.085 0.085-0.128 0.171-231.637 278.827c-8.576 9.771-13.824 22.656-13.824 36.736 0 8.448 1.877 16.469 5.248 23.637l-0.128-0.341c9.301 19.456 28.8 32.64 51.371 32.64 0.384 0 0.768 0 1.152 0h110.165l-0.043 188.373c0.427 30.763 25.472 55.552 56.277 55.552 0.683 0 1.323 0 2.005-0.043l127.36-0.043c0.555 0 1.237 0.043 1.92 0.043 30.805 0 55.851-24.789 56.277-55.509v-188.331h110.208c0.299 0 0.683 0 1.067 0 22.613 0 42.155-13.184 51.328-32.299l0.128-0.341c3.2-6.827 5.077-14.848 5.077-23.296 0-14.165-5.248-27.136-13.909-36.992l0.043 0.043-231.296-278.613c-10.709-12.672-26.624-20.651-44.373-20.651v0zM505.259 196.187c1.664-1.963 4.139-3.157 6.869-3.157 0 0 0 0 0.043 0v0c0 0 0.043 0 0.043 0 2.816 0 5.333 1.28 6.997 3.243v0l231.253 278.613c1.536 1.365 2.517 3.371 2.517 5.589 0 1.024-0.213 2.005-0.555 2.859v-0.043c-1.408 2.645-4.139 4.437-7.296 4.437-0.341 0-0.683-0.043-1.024-0.085h-134.528c0 0 0 0 0 0-13.44 0-24.363 10.923-24.363 24.363 0 0 0 0 0 0v0 212.693c0 6.4-7.851 6.741-9.429 6.741l-127.445 0.043c-1.579 0-9.429-0.341-9.429-6.741l0.043-212.736c0-13.483-10.923-24.363-24.363-24.363h-134.571c-0.299 0.043-0.64 0.043-0.981 0.043-3.115 0-5.845-1.749-7.253-4.352v-0.043c-0.341-0.853-0.555-1.792-0.555-2.816 0-2.133 0.896-4.053 2.389-5.376v0zM840.661 0.006h-657.323c-74.283 0.085-134.485 60.288-134.571 134.571v657.323c0.085 74.283 60.288 134.485 134.571 134.571h657.323c74.283-0.085 134.485-60.288 134.571-134.571v-657.323c-0.085-74.283-60.288-134.485-134.571-134.571v0zM183.339 877.702c-47.36-0.043-85.76-38.443-85.803-85.803v-657.323c0.043-47.36 38.443-85.76 85.803-85.803h657.323c47.36 0.043 85.76 38.443 85.803 85.803v657.323c-0.043 47.36-38.443 85.76-85.803 85.803v0z" />
<glyph unicode="&#xe156;" glyph-name="inbox" d="M971.333 379.368l-2.929 3.901-192.119 288.67c-4.529 6.516-11.978 10.728-20.41 10.728-0.023 0-0.046 0-0.070 0h-487.615c-0.020 0-0.043 0-0.066 0-8.432 0-15.881-4.212-20.356-10.646l-0.054-0.081-192.119-288.67-2.929-3.901c-2.453-3.638-3.916-8.12-3.916-12.943 0-0.25 0.004-0.499 0.012-0.746l-0.001 0.036v-302.324c0-0.036 0-0.078 0-0.121 0-34.943 28.327-63.27 63.27-63.27 0.043 0 0.086 0 0.13 0h799.686c0.036 0 0.078 0 0.121 0 34.943 0 63.27 28.327 63.27 63.27 0 0.042 0 0.085 0 0.127v-0.006 302.324c0.007 0.212 0.011 0.46 0.011 0.71 0 4.824-1.463 9.305-3.969 13.026l0.053-0.083zM281.356 633.905h461.288l162.381-243.81h-173.596c-9.413-0.134-17.576-5.358-21.874-13.037l-0.066-0.129-28.772-57.539c-8.438-16.057-25.001-26.82-44.078-26.82-0.103 0-0.206 0-0.309 0.001h-249.163c-19.383 0.084-36.135 11.263-44.24 27.51l-0.13 0.288-27.307 56.073c-4.168 8.077-12.404 13.531-21.926 13.653h-174.588zM926.476 63.39c0.002-0.079 0.002-0.172 0.002-0.266 0-7.934-6.432-14.365-14.365-14.365-0.093 0-0.187 0.001-0.28 0.003h-799.679c-0.080-0.002-0.174-0.003-0.268-0.003-7.934 0-14.365 6.432-14.365 14.365 0 0.093 0.001 0.187 0.003 0.28v-0.014 277.943h180.907l20.976-42.423c15.961-32.855 49.078-55.102 87.391-55.102 0.13 0 0.259 0 0.388 0.001h249.159c0.051 0 0.111 0 0.171 0 37.998 0 70.963 21.548 87.343 53.092l0.258 0.546 22.43 43.886h179.929z" />
<glyph unicode="&#xe159;" glyph-name="markunread" d="M872.838 828.952h-721.676c-0.005 0-0.011 0-0.017 0-56.545 0-102.383-45.839-102.383-102.383 0-0.006 0-0.012 0-0.018v0.001-526.629c0-0.005 0-0.011 0-0.017 0-56.545 45.839-102.383 102.383-102.383 0.006 0 0.012 0 0.018 0h721.675c0.005 0 0.011 0 0.017 0 56.545 0 102.383 45.839 102.383 102.383 0 0.006 0 0.012 0 0.018v-0.001 526.629c0 0.005 0 0.011 0 0.017 0 56.545-45.839 102.383-102.383 102.383-0.006 0-0.012 0-0.018 0h0.001zM926.476 199.924c-0.061-5.418-0.948-10.608-2.541-15.478l0.103 0.365-265.752 265.749 268.19 235.523zM151.162 780.19h721.676c0.067 0 0.147 0 0.227 0 21.954 0 40.796-13.32 48.886-32.32l0.131-0.347-353.036-310.619c-14.273-14.523-34.125-23.522-56.079-23.522-22.194 0-42.24 9.198-56.534 23.99l-0.022 0.022-354.011 311.101c8.518 18.828 27.137 31.692 48.761 31.695v0zM97.524 199.924v488.107l269.653-237.958-266.728-266.728c-1.854 4.769-2.929 10.29-2.929 16.061 0 0.182 0.001 0.364 0.003 0.546v-0.028zM872.838 146.286h-721.676c-0.152-0.002-0.331-0.003-0.511-0.003-5.774 0-11.297 1.075-16.379 3.037l0.311-0.106 269.166 269.166 20.964-18.536c23.448-21.063 54.576-33.989 88.721-34.13h0.029c33.673 0.353 64.268 13.249 87.394 34.23l-0.11-0.099 20.964 18.536 268.678-268.678c-4.883-2.167-10.579-3.429-16.57-3.429-0.345 0-0.689 0.004-1.032 0.012l0.051-0.001z" />
<glyph unicode="&#xe15a;" glyph-name="redo" d="M926.476 424.226v-302.321c0.008-0.215 0.012-0.467 0.012-0.72 0-3.275-0.723-6.38-2.018-9.166l0.056 0.134c-1.758-3.185-3.864-5.918-6.323-8.288l-0.011-0.010c-2.116-2.175-4.737-3.847-7.674-4.83l-0.136-0.039h-0.488c-2.313-0.914-4.992-1.45-7.795-1.462h-302.326c-13.465 0-24.381 10.916-24.381 24.381s10.916 24.381 24.381 24.381v0h243.81c-2.304 1.883-4.374 3.798-6.321 5.832l-0.024 0.025-60.952 60.952c-171.643 171.143-335.966 325.236-461.771 325.236-5.119 0.579-11.052 0.909-17.063 0.909-48.657 0-92.263-21.628-121.728-55.794l-0.175-0.208c-40.965-56.084-39.012-158.976 5.359-297.943l20-60.952c0.688-2.172 1.084-4.669 1.084-7.259 0-10.8-6.892-19.991-16.518-23.414l-0.174-0.054c-2.3-0.525-4.978-0.875-7.721-0.973l-0.077-0.002c-10.713 0.176-19.737 7.212-22.88 16.899l-0.049 0.173-19.99 60.954c-50.225 156.036-49.737 271.119 1.463 341.333 38.136 46.496 95.591 75.929 159.92 75.929 6.53 0 12.99-0.303 19.365-0.897l-0.817 0.061c144.823 0 316.952-160.917 495.917-339.87 20.964-20.964 42.905-41.941 61.428-60.465 1.809-1.897 3.72-3.652 5.741-5.275l0.114-0.089v242.834c0 13.465 10.916 24.381 24.381 24.381s24.381-10.916 24.381-24.381v0z" />
<glyph unicode="&#xe15b;" glyph-name="remove" d="M902.095 438.857h-780.19c-13.465 0-24.381 10.916-24.381 24.381s10.916 24.381 24.381 24.381v0h780.19c13.465 0 24.381-10.916 24.381-24.381s-10.916-24.381-24.381-24.381v0z" />
<glyph unicode="&#xe15c;" glyph-name="remove-circle" d="M512 0c-255.839 0-463.238 207.399-463.238 463.238s207.399 463.238 463.238 463.238c255.839 0 463.238-207.399 463.238-463.238v0c-0.3-255.719-207.519-462.938-463.209-463.238h-0.029zM512 877.714c-228.909 0-414.476-185.567-414.476-414.476s185.567-414.476 414.476-414.476c228.909 0 414.476 185.567 414.476 414.476v0c-0.281 228.795-185.68 414.195-414.449 414.476h-0.028zM760.667 438.857h-497.333c-13.465 0-24.381 10.916-24.381 24.381s10.916 24.381 24.381 24.381v0h497.333c13.465 0 24.381-10.916 24.381-24.381s-10.916-24.381-24.381-24.381v0z" />
<glyph unicode="&#xe15d;" glyph-name="remove-circle-outline" d="M512 0.006c-255.829 0-463.232 207.403-463.232 463.232s207.403 463.232 463.232 463.232c255.829 0 463.232-207.403 463.232-463.232v0c-0.299-255.701-207.531-462.933-463.189-463.232h-0.043zM512 877.702c-228.907 0-414.464-185.557-414.464-414.464s185.557-414.464 414.464-414.464c228.907 0 414.464 185.557 414.464 414.464v0c-0.256 228.821-185.685 414.208-414.464 414.464h-0.043zM707.029 438.875h-390.101c-13.483 0-24.363 10.923-24.363 24.363s10.923 24.363 24.363 24.363v0h390.101c13.483 0 24.363-10.923 24.363-24.363s-10.923-24.363-24.363-24.363v0z" />
<glyph unicode="&#xe161;" glyph-name="save" d="M560.762 682.667c-0.004 0-0.009 0-0.014 0-13.457 0-24.367 10.909-24.367 24.367 0 0.005 0 0.010 0 0.015v-0.001 48.762c0 13.465 10.916 24.381 24.381 24.381s24.381-10.916 24.381-24.381v0-48.762c0-0.004 0-0.009 0-0.014 0-13.457-10.909-24.367-24.367-24.367-0.005 0-0.010 0-0.015 0h0.001zM908.922 734.845l-125.315 125.322c-10.895 10.794-25.873 17.484-42.414 17.547h-580.766c-34.704-0.090-62.812-28.199-62.903-62.894v-703.156c0.090-34.704 28.199-62.812 62.894-62.903h703.156c34.704 0.090 62.812 28.199 62.903 62.894v580.761c0 0.036 0 0.078 0 0.121 0 16.528-6.709 31.488-17.553 42.307l-0.001 0.001zM292.571 828.952h390.095v-195.048h-390.095zM292.571 97.524v258.438c0 0.062-0.001 0.135-0.001 0.208 0 18.737 15.189 33.926 33.926 33.926 0.073 0 0.146 0 0.219-0.001h370.584c0.060 0 0.132 0.001 0.203 0.001 18.737 0 33.926-15.189 33.926-33.926 0-0.073 0-0.146-0.001-0.219v0.011-258.438zM877.714 111.665c-0.006-7.807-6.334-14.135-14.14-14.141h-83.383v258.438c0 0.021 0 0.046 0 0.070 0 45.743-37.082 82.825-82.825 82.825-0.024 0-0.048 0-0.072 0h-370.589c-0.021 0-0.046 0-0.070 0-45.743 0-82.825-37.082-82.825-82.825 0-0.025 0-0.049 0-0.074v0.004-258.438h-83.383c-7.807 0.006-14.135 6.334-14.141 14.14v703.148c0.004 7.808 6.333 14.137 14.141 14.141h83.383v-219.429c-0.001-0.071-0.001-0.155-0.001-0.24 0-13.334 10.809-24.143 24.143-24.143 0.084 0 0.168 0 0.252 0.001h438.844c0.071-0.001 0.155-0.001 0.24-0.001 13.334 0 24.143 10.809 24.143 24.143 0 0.084 0 0.168-0.001 0.252v-0.013 219.429h9.752c0.122 0.005 0.265 0.009 0.408 0.009 2.957 0 5.605-1.324 7.382-3.412l0.011-0.014 125.315-125.322c2.101-1.786 3.425-4.43 3.425-7.384 0-0.145-0.003-0.29-0.010-0.434l0.001 0.020z" />
<glyph unicode="&#xe163;" glyph-name="send" d="M964.998 922.088c-3.936 2.77-8.83 4.428-14.111 4.428-4.299 0-8.341-1.098-11.861-3.029l0.128 0.065-877.714-487.619c-7.641-4.416-12.7-12.548-12.7-21.861 0-0.372 0.008-0.742 0.024-1.11l-0.002 0.052c0.513-9.538 6.555-17.546 14.958-20.911l0.161-0.057 281.356-117.516 64.845-253.074 0.488-2.926c0.597-2.765 1.611-5.212 2.985-7.411l-0.056 0.097c1.381-2.242 2.998-4.168 4.856-5.829l0.025-0.022c4.313-3.221 9.71-5.211 15.566-5.363l0.036-0.001h0.97c0.073-0.001 0.159-0.002 0.245-0.002 2.559 0 4.992 0.539 7.191 1.509l-0.114-0.045c3.977 1.281 7.302 3.66 9.719 6.779l0.034 0.045c0.488 0 0.975 0 0.975 0.488l141.895 173.595 200.417-82.895c2.792-1.208 6.044-1.911 9.46-1.911 4.212 0 8.175 1.069 11.632 2.95l-0.128-0.064c6.296 3.585 10.803 9.693 12.166 16.913l0.024 0.154 146.286 780.19c0.285 1.395 0.449 2.998 0.449 4.639 0 8.118-3.997 15.302-10.13 19.692l-0.073 0.050zM129.219 417.402l700.221 389.608-467.142-486.644zM391.558 288.183l365.714 380.83-281.356-393.996c-6.124-3.347-10.586-9.086-12.159-15.928l-0.032-0.163-30.72-131.657zM481.768 121.905l22.918 98.011 42.423-17.554zM786.042 156.038l-262.827 109.227 384.244 537.844z" />
<glyph unicode="&#xe168;" glyph-name="move-to-inbox" d="M53.643 379.855c-1.225-1.689-2.364-3.609-3.322-5.63l-0.094-0.221c1.423 3.993 3.583 7.411 6.34 10.247l-0.006-0.007zM973.775 374.004c-1.053 2.243-2.192 4.162-3.49 5.958l0.074-0.107-2.916 4.389-192.133 263.802c-4.422 6.148-11.556 10.105-19.614 10.105-13.304 0-24.088-10.785-24.088-24.088 0-5.382 1.765-10.353 4.749-14.363l-0.046 0.064 167.248-229.669h-172.13c-9.413-0.136-17.575-5.358-21.874-13.037l-0.066-0.129-28.772-57.539c-8.44-16.057-25.005-26.82-44.083-26.82-0.1 0-0.201 0-0.301 0.001h-249.166c-19.381 0.085-36.132 11.262-44.24 27.507l-0.13 0.288-27.307 56.076c-4.168 8.076-12.405 13.53-21.926 13.653h-173.122l167.248 229.669c2.938 3.946 4.703 8.916 4.703 14.299 0 13.304-10.785 24.088-24.088 24.088-8.058 0-15.192-3.957-19.565-10.034l-0.049-0.072-192.131-263.802-2.916-4.389c-1.225-1.689-2.364-3.609-3.322-5.63l-0.094-0.221c-0.916-2.465-1.452-5.313-1.464-8.284v-302.329c0-0.037 0-0.080 0-0.123 0-34.942 28.326-63.268 63.268-63.268 0.044 0 0.088 0 0.132 0h799.686c0.037 0 0.080 0 0.123 0 34.942 0 63.268 28.326 63.268 63.268 0 0.043 0 0.086 0 0.13v-0.007 302.324c-0.012 2.976-0.547 5.824-1.518 8.461l0.055-0.172zM926.476 63.39c0.002-0.079 0.002-0.173 0.002-0.267 0-7.933-6.431-14.364-14.364-14.364-0.094 0-0.187 0.001-0.281 0.003h-799.679c-0.080-0.002-0.175-0.003-0.269-0.003-7.933 0-14.364 6.431-14.364 14.364 0 0.094 0.001 0.187 0.003 0.281v-0.014 277.943h180.907l20.976-42.423c16.172-32.828 49.365-55.031 87.75-55.101h249.188c0.049 0 0.107 0 0.164 0 38 0 70.967 21.548 87.349 53.092l0.258 0.546 22.43 43.886h179.929zM512 390.095h-0.714c-3.116 0.105-6.046 0.778-8.731 1.918l0.16-0.060c-2.853 1.173-5.3 2.764-7.394 4.727l0.013-0.012-0.049 0.049v0.049l-0.571 0.524-146.237 146.237c-4.235 4.38-6.844 10.354-6.844 16.938 0 13.465 10.916 24.381 24.381 24.381 6.584 0 12.558-2.609 16.945-6.851l104.661-104.661v380.002c0 13.465 10.916 24.381 24.381 24.381s24.381-10.916 24.381-24.381v0-380.002l104.666 104.667c4.44 4.592 10.655 7.443 17.537 7.443 13.465 0 24.381-10.916 24.381-24.381 0-6.882-2.851-13.097-7.436-17.53l-146.864-146.865c-2.081-1.95-4.528-3.541-7.222-4.656l-0.159-0.058c-2.524-1.079-5.454-1.751-8.529-1.855l-0.041-0.001h-0.714z" />
<glyph unicode="&#xe169;" glyph-name="unarchive" d="M925.989 877.714h-827.977c-0.041 0-0.090 0-0.139 0-27.123 0-49.111-21.988-49.111-49.111 0-0.049 0-0.098 0-0.147v0.008-145.31c0-0.073-0.001-0.158-0.001-0.244 0-26.98 21.802-48.867 48.749-49.005h0.013v-521.752c0-0.036 0-0.078 0-0.121 0-34.943 28.327-63.27 63.27-63.27 0.043 0 0.086 0 0.13 0h702.162c0.036 0 0.078 0 0.121 0 34.943 0 63.27 28.327 63.27 63.27 0 0.042 0 0.085 0 0.127v-0.006 521.752c26.96 0.138 48.763 22.025 48.763 49.005 0 0.086 0 0.172-0.001 0.258v-0.013 145.31c0 0.041 0 0.090 0 0.139 0 27.123-21.988 49.111-49.111 49.111-0.049 0-0.098 0-0.147 0h0.008zM877.714 112.152c0.002-0.080 0.003-0.175 0.003-0.27 0-7.932-6.43-14.361-14.361-14.361-0.095 0-0.189 0.001-0.284 0.003h-702.155c-0.081-0.002-0.176-0.003-0.272-0.003-7.932 0-14.361 6.43-14.361 14.361 0 0.095 0.001 0.19 0.003 0.284v-0.014 521.752h731.429zM925.989 682.667l-828.465 0.488 0.488 145.798 828.465-0.488zM372.638 412.102l119.954 115.989 1.95 1.463c2.114 1.884 4.52 3.51 7.127 4.789l0.187 0.083h0.975c2.457 1.232 5.353 1.954 8.418 1.954 0.126 0 0.252-0.001 0.378-0.004h-0.019c0.117 0.002 0.255 0.004 0.393 0.004 3.219 0 6.27-0.72 9.001-2.009l-0.129 0.055h0.488c3.011-1.404 5.589-3.201 7.808-5.366l-0.006 0.005c0.488-0.488 0.488-0.488 0.488-0.975l120.93-120.867c4.364-4.366 7.063-10.397 7.063-17.058 0-13.327-10.803-24.13-24.13-24.13-6.665 0-12.7 2.703-17.067 7.072v0l-80.457 80.418v-234.111c0-13.465-10.916-24.381-24.381-24.381s-24.381 10.916-24.381 24.381v0 235.089l-80.457-77.493c-4.387-4.12-10.307-6.65-16.819-6.65-6.999 0-13.315 2.924-17.793 7.616l-0.009 0.010c-4.261 4.324-6.892 10.264-6.892 16.818 0 6.795 2.828 12.93 7.371 17.291l0.008 0.008z" />
<glyph unicode="&#xe16c;" glyph-name="delete-sweep" d="M126.786 682.179h-9.762c1.175 0.329 2.523 0.519 3.916 0.519 0.339 0 0.676-0.011 1.010-0.033l-0.045 0.002c0.289 0.020 0.625 0.031 0.965 0.031 1.393 0 2.742-0.189 4.022-0.544l-0.106 0.025zM680.716 828.952h-532.48c-0.063 0-0.138 0-0.213 0-54.821 0-99.262-44.441-99.262-99.262 0-0.075 0-0.15 0-0.225v0.012-47.299c0-0.061 0-0.133 0-0.205 0-26.548 21.521-48.069 48.069-48.069 0.072 0 0.144 0 0.216 0h0.477v-537.356c0.128-53.271 43.278-96.421 96.536-96.549h439.844c54.128 0.006 98.005 43.884 98.011 98.011v535.894c0.061 0 0.133 0 0.205 0 26.548 0 48.069 21.521 48.069 48.069 0 0.072 0 0.144 0 0.216v-0.011 47.299c0 0.063 0 0.138 0 0.213 0 54.821-44.441 99.262-99.262 99.262-0.075 0-0.15 0-0.225 0h0.012zM97.524 682.179v47.299c-0.001 0.104-0.001 0.227-0.001 0.35 0 27.815 22.549 50.364 50.364 50.364 0.123 0 0.246 0 0.369-0.001h532.461c0.104 0.001 0.227 0.001 0.35 0.001 27.815 0 50.364-22.549 50.364-50.364 0-0.123 0-0.246-0.001-0.369v0.019-46.811l-604.643-0.488zM683.154 98.011c0-0.041 0-0.090 0-0.139 0-27.123-21.988-49.111-49.111-49.111-0.049 0-0.098 0-0.147 0h-439.824c-26.375 0.042-47.745 21.412-47.787 47.783v537.36h536.869zM463.238 848.476c-0.004 0-0.009 0-0.014 0-13.457 0-24.367 10.909-24.367 24.367 0 0.005 0 0.010 0 0.015v-0.001 4.857h-48.762v-4.857c0-13.465-10.916-24.381-24.381-24.381s-24.381 10.916-24.381 24.381v0 9.238c0.025 24.501 19.88 44.356 44.379 44.381h57.526c24.501-0.025 44.356-19.88 44.381-44.379v-9.24c0-0.004 0-0.009 0-0.014 0-13.457-10.909-24.367-24.367-24.367-0.005 0-0.010 0-0.015 0h0.001zM268.19 121.905c-0.004 0-0.009 0-0.014 0-13.457 0-24.367 10.909-24.367 24.367 0 0.005 0 0.010 0 0.015v-0.001 390.095c0 13.465 10.916 24.381 24.381 24.381s24.381-10.916 24.381-24.381v0-390.095c0-0.004 0-0.009 0-0.014 0-13.457-10.909-24.367-24.367-24.367-0.005 0-0.010 0-0.015 0h0.001zM365.714 121.905c-0.004 0-0.009 0-0.014 0-13.457 0-24.367 10.909-24.367 24.367 0 0.005 0 0.010 0 0.015v-0.001 390.095c0 13.465 10.916 24.381 24.381 24.381s24.381-10.916 24.381-24.381v0-390.095c0-0.004 0-0.009 0-0.014 0-13.457-10.909-24.367-24.367-24.367-0.005 0-0.010 0-0.015 0h0.001zM463.238 121.905c-0.004 0-0.009 0-0.014 0-13.457 0-24.367 10.909-24.367 24.367 0 0.005 0 0.010 0 0.015v-0.001 390.095c0 13.465 10.916 24.381 24.381 24.381s24.381-10.916 24.381-24.381v0-390.095c0-0.004 0-0.009 0-0.014 0-13.457-10.909-24.367-24.367-24.367-0.005 0-0.010 0-0.015 0h0.001zM560.762 121.905c-0.004 0-0.009 0-0.014 0-13.457 0-24.367 10.909-24.367 24.367 0 0.005 0 0.010 0 0.015v-0.001 390.095c0 13.465 10.916 24.381 24.381 24.381s24.381-10.916 24.381-24.381v0-390.095c0-0.004 0-0.009 0-0.014 0-13.457-10.909-24.367-24.367-24.367-0.005 0-0.010 0-0.015 0h0.001zM804.571 585.143h146.286c13.465 0 24.381-10.916 24.381-24.381s-10.916-24.381-24.381-24.381h-146.286c-13.465 0-24.381 10.916-24.381 24.381s10.916 24.381 24.381 24.381zM804.571 438.857h97.524c13.465 0 24.381-10.916 24.381-24.381s-10.916-24.381-24.381-24.381h-97.524c-13.465 0-24.381 10.916-24.381 24.381s10.916 24.381 24.381 24.381zM804.572 292.577h48.762c13.465 0 24.381-10.916 24.381-24.381s-10.916-24.381-24.381-24.381h-48.762c-13.465 0-24.381 10.916-24.381 24.381s10.916 24.381 24.381 24.381z" />
<glyph unicode="&#xe226;" glyph-name="attach-file" d="M537.941-0.335c-0.085 0-0.213 0-0.299 0-134.656 0-243.84 109.184-243.84 243.84 0 0.128 0 0.256 0 0.384v0 509.483c0 0.597 0 1.28 0 1.963 0 94.251 76.416 170.667 170.667 170.667s170.667-76.416 170.667-170.667c0-0.085 0-0.213 0-0.299v0-476.501c0-0.555 0-1.195 0-1.835 0-53.803-43.605-97.408-97.408-97.408-23.083 0-44.288 8.021-60.971 21.461l0.171-0.128c-22.528 17.963-36.864 45.397-36.864 76.203 0 0.085 0 0.128 0 0.213v0 407.765c0 13.483 10.923 24.363 24.363 24.363s24.363-10.923 24.363-24.363v0-407.765c0-27.008 21.931-48.939 48.939-48.939 4.096 0 8.107 0.512 11.904 1.451l-0.341-0.085c21.461 5.845 36.992 25.131 36.992 48.085 0 0.341 0 0.683 0 1.067v-0.043 476.501c0 0.128 0 0.299 0 0.469 0 67.328-54.571 121.899-121.899 121.899s-121.899-54.571-121.899-121.899c0-0.768 0-1.536 0-2.304v0.128-509.483c0-0.171 0-0.427 0-0.64 0-107.733 87.339-195.072 195.072-195.072s195.072 87.339 195.072 195.072c0 0.896 0 1.792 0 2.688v-0.128 438.955c0 13.483 10.923 24.363 24.363 24.363s24.363-10.923 24.363-24.363v0-438.997c0-0.469 0-1.024 0-1.579 0-116.053-80.725-213.291-189.056-238.592l-1.664-0.341c-15.872-3.541-34.091-5.547-52.779-5.589v0z" />
<glyph unicode="&#xe227;" glyph-name="dollar" d="M512 0c-0.004 0-0.009 0-0.014 0-13.457 0-24.367 10.909-24.367 24.367 0 0.005 0 0.010 0 0.015v-0.001 37.714c-1.961-0.035-4.274-0.056-6.592-0.056-22.765 0-45.077 1.943-66.778 5.672l2.324-0.33c-25.016 4.453-47.214 11.052-68.287 19.815l2.142-0.79c-21.711 9.101-40.427 19.879-57.569 32.651l0.713-0.508c-18.045 13.399-33.988 27.121-48.893 41.89l0.033-0.033c-4.606 4.441-7.466 10.666-7.466 17.559 0 13.465 10.916 24.381 24.381 24.381 6.798 0 12.946-2.782 17.368-7.27l0.003-0.003c13.248-13.138 27.451-25.369 42.473-36.561l1.051-0.748c13.458-10.024 28.788-18.845 45.119-25.763l1.453-0.547c16.070-6.744 34.914-12.32 54.478-15.824l1.665-0.247c16.314-2.944 35.092-4.628 54.263-4.628 2.855 0 5.701 0.037 8.539 0.112l-0.419-0.009v368.5c-24.857 6.714-48.811 13.976-72.048 21.762-26.201 8.741-48.94 20.051-69.736 34.028l1.022-0.647c-20.853 14.157-38.101 31.981-51.187 52.697l-0.432 0.732c-13.688 22.883-21.935 50.402-22.332 79.816l-0.001 0.112c-0.078 2.016-0.123 4.383-0.123 6.761 0 24.44 4.713 47.779 13.28 69.158l-0.443-1.253c10.171 25.345 24.982 46.889 43.543 64.522l0.078 0.073c20.036 18.765 43.673 33.978 69.722 44.462l1.514 0.538c25.627 10.351 55.298 17.243 86.305 19.219l0.838 0.043v30.714c0 13.465 10.916 24.381 24.381 24.381s24.381-10.916 24.381-24.381v0-30.405c22.014-1.013 42.773-4.65 62.524-10.612l-1.81 0.469c22.329-6.694 41.679-15.063 59.792-25.358l-1.411 0.738c13.747-7.773 25.627-16.238 36.536-25.785l-0.25 0.214c7.524-6.905 17-16 17-16l-33.714-35.19c-0.049 0.049-9.048 8.643-16.238 15.238-8.221 7.049-17.386 13.488-27.141 19.005l-0.859 0.447c-13.781 7.811-29.757 14.654-46.516 19.687l-1.674 0.432c-13.622 4.153-29.416 6.97-45.723 7.858l-0.516 0.022v-306.024q32.286-8.68 64-18.024c30.618-8.898 57.288-20.609 82-35.27l-1.619 0.889c24.828-14.793 45.495-33.964 61.535-56.639l0.418-0.622c16.878-25.623 26.996-57.003 27.19-90.735v-0.051c0.139-3.075 0.218-6.68 0.218-10.305 0-30.272-5.528-59.253-15.63-85.989l0.555 1.674c-11.728-30.944-28.987-57.372-50.773-79.299l0.012 0.012c-23.223-23.064-50.827-41.751-81.449-54.698l-1.694-0.636c-24.688-10.593-53.333-18.37-83.268-21.948l-1.495-0.145v-40.667c0-0.004 0-0.009 0-0.014 0-13.457-10.909-24.367-24.367-24.367-0.005 0-0.010 0-0.015 0h0.001zM536.381 466.31v-352.095c24.463 3.378 46.584 9.606 67.333 18.433l-1.714-0.648c26.255 10.971 48.689 26.083 67.593 44.759l-0.021-0.021c17.057 17.17 30.589 37.865 39.405 60.894l0.404 1.202c7.574 19.916 11.959 42.947 11.959 67.001 0 3.073-0.072 6.129-0.213 9.167l0.016-0.43c0.001 0.18 0.002 0.393 0.002 0.606 0 23.806-6.903 46.001-18.815 64.691l0.29-0.487c-12.425 17.558-28.025 32.002-46.075 42.763l-0.687 0.38c-19.878 11.82-42.837 21.87-67.059 28.965l-2.135 0.536q-24.926 7.356-50.282 14.285zM487.619 822.477c-25.196-1.867-48.574-7.392-70.36-16.061l1.598 0.561c-21.598-8.59-40.13-20.44-55.968-35.15l0.111 0.102c-13.701-12.879-24.559-28.615-31.644-46.271l-0.309-0.872c-5.997-14.811-9.477-31.99-9.477-49.981 0-1.799 0.035-3.589 0.104-5.371l-0.008 0.256c0.071-20.61 5.611-39.911 15.244-56.547l-0.292 0.547c9.839-15.568 22.393-28.502 37.118-38.472l0.454-0.29c16.375-11.042 35.21-20.387 55.255-27.093l1.651-0.479q27.502-9.216 56.524-17.428z" />
<glyph unicode="&#xe22a;" glyph-name="border-clear" d="M48.762 926.476h48.762v-48.762h-48.762v48.762zM48.762 828.952h48.762v-48.762h-48.762v48.762zM48.762 731.428h48.762v-48.762h-48.762v48.762zM48.762 633.905h48.762v-48.762h-48.762v48.762zM48.762 536.381h48.762v-48.762h-48.762v48.762zM48.762 438.857h48.762v-48.762h-48.762v48.762zM48.762 341.333h48.762v-48.762h-48.762v48.762zM48.762 243.809h48.762v-48.762h-48.762v48.762zM48.762 146.286h48.762v-48.762h-48.762v48.762zM48.762 48.762h48.762v-48.762h-48.762v48.762zM926.476 926.476h48.762v-48.762h-48.762v48.762zM926.476 828.952h48.762v-48.762h-48.762v48.762zM926.476 731.428h48.762v-48.762h-48.762v48.762zM926.476 633.905h48.762v-48.762h-48.762v48.762zM926.476 536.381h48.762v-48.762h-48.762v48.762zM926.476 438.857h48.762v-48.762h-48.762v48.762zM926.476 341.333h48.762v-48.762h-48.762v48.762zM926.476 243.809h48.762v-48.762h-48.762v48.762zM926.476 146.286h48.762v-48.762h-48.762v48.762zM926.476 48.762h48.762v-48.762h-48.762v48.762zM146.286 877.714v48.762h48.762v-48.762h-48.762zM243.81 877.714v48.762h48.762v-48.762h-48.762zM341.333 877.714v48.762h48.762v-48.762h-48.762zM438.857 877.714v48.762h48.762v-48.762h-48.762zM536.381 877.714v48.762h48.762v-48.762h-48.762zM633.905 877.714v48.762h48.762v-48.762h-48.762zM731.429 877.714v48.762h48.762v-48.762h-48.762zM828.952 877.714v48.762h48.762v-48.762h-48.762zM146.286 0v48.762h48.762v-48.762h-48.762zM243.81 0v48.762h48.762v-48.762h-48.762zM341.333 0v48.762h48.762v-48.762h-48.762zM438.857 0v48.762h48.762v-48.762h-48.762zM536.381 0v48.762h48.762v-48.762h-48.762zM633.905 0v48.762h48.762v-48.762h-48.762zM731.429 0v48.762h48.762v-48.762h-48.762zM828.952 0v48.762h48.762v-48.762h-48.762zM146.286 438.857v48.762h48.762v-48.762h-48.762zM243.81 438.857v48.762h48.762v-48.762h-48.762zM341.333 438.857v48.762h48.762v-48.762h-48.762zM438.857 438.857v48.762h48.762v-48.762h-48.762zM536.381 438.857v48.762h48.762v-48.762h-48.762zM633.905 438.857v48.762h48.762v-48.762h-48.762zM731.429 438.857v48.762h48.762v-48.762h-48.762zM828.952 438.857v48.762h48.762v-48.762h-48.762zM487.619 828.952h48.762v-48.762h-48.762v48.762zM487.619 731.428h48.762v-48.762h-48.762v48.762zM487.619 633.905h48.762v-48.762h-48.762v48.762zM487.619 536.381h48.762v-48.762h-48.762v48.762zM487.619 438.857h48.762v-48.762h-48.762v48.762zM487.619 341.333h48.762v-48.762h-48.762v48.762zM487.619 243.809h48.762v-48.762h-48.762v48.762zM487.619 146.286h48.762v-48.762h-48.762v48.762z" />
<glyph unicode="&#xe239;" glyph-name="format-clear" d="M487.619 335.482l48.762 48.762v-359.863c0-13.465-10.916-24.381-24.381-24.381s-24.381 10.916-24.381 24.381v0zM881.131 923.063c-12.108-3.394-22.48-9.66-30.717-18.033l-27.313-27.316h-286.72v-286.72l-48.762-48.762v335.482h-336.457c-13.465 0-24.381 10.916-24.381 24.381s10.916 24.381 24.381 24.381v0h716.802c4.833-0.098 9.353-1.35 13.323-3.49l-0.156 0.077zM919.162 836.267l-780.19-780.19c-4.301-4.511-10.356-7.316-17.067-7.316s-12.766 2.805-17.058 7.307l-0.009 0.009c-4.512 4.3-7.318 10.356-7.318 17.067s2.806 12.767 7.308 17.058l0.010 0.009 780.19 780.19c4.301 4.511 10.356 7.316 17.067 7.316s12.766-2.805 17.058-7.307l0.009-0.009c4.512-4.3 7.318-10.356 7.318-17.067s-2.806-12.767-7.308-17.058l-0.010-0.009z" />
<glyph unicode="&#xe24a;" glyph-name="functions" d="M800.454 48.752h-605.381c-0.004 0-0.009 0-0.014 0-13.458 0-24.367 10.91-24.367 24.367 0 0.005 0 0.010 0 0.014v-0.001 31.715c0.009 6.199 2.318 11.856 6.118 16.167l-0.023-0.027 303 342.622-288.905 350.595c-3.467 4.16-5.572 9.561-5.572 15.454 0 0.016 0 0.033 0 0.049v-0.003 23.619c0 0.004 0 0.009 0 0.014 0 13.457 10.909 24.367 24.367 24.367 0.005 0 0.010 0 0.015 0h574.856c0.006 0 0.013 0 0.020 0 12.852 0 23.381-9.947 24.307-22.563l0.005-0.080c0.428-5.976 1.476-12.643 2.952-21.81 2.667-17.048 6.524-41.809 10.429-83.5 0.067-0.678 0.105-1.465 0.105-2.262 0-13.471-10.92-24.391-24.391-24.391-12.674 0-23.091 9.667-24.278 22.030l-0.008 0.099c-3.715 40.191-7.476 64.047-10.048 80.476-0.19 1.095-0.333 2.19-0.524 3.238h-521.189l288.714-350.381c3.462-4.183 5.563-9.603 5.563-15.514 0-6.195-2.307-11.851-6.11-16.155l-308.977-349.379h560.953l33.191 116.215c3.007 10.287 12.355 17.674 23.428 17.674 13.456 0 24.365-10.909 24.365-24.365 0-2.383-0.342-4.686-0.98-6.863l0.043 0.172-38.24-133.905c-2.981-10.293-12.321-17.691-23.39-17.691-0.013 0-0.026 0-0.039 0h0.002z" />
<glyph unicode="&#xe24d;" glyph-name="insert-drive-file" d="M814.3-0.019h-604.619c-34.997 0.061-63.347 28.428-63.381 63.425v799.669c0.038 34.989 28.392 63.343 63.378 63.381h448.765c0.067 0 0.147 0 0.227 0 22.822 0 43.475-9.285 58.389-24.282l136.385-136.385c14.949-15.036 24.211-35.739 24.283-58.605v-643.775c-0.057-35.007-28.42-63.37-63.421-63.429h-0.006zM209.682 877.695c-8.066-0.019-14.6-6.553-14.619-14.617v-799.668c0-0.001 0-0.003 0-0.004 0-8.083 6.54-14.638 14.617-14.663h604.621c8.057 0.107 14.559 6.61 14.666 14.656v643.771c-0.041 9.421-3.853 17.945-10.002 24.145l-136.379 136.379c-6.159 6.178-14.677 10-24.088 10-0.019 0-0.038 0-0.057 0h0.003zM780.205 682.648h-82.905c-34.997 0.061-63.347 28.428-63.381 63.425v82.86c0 13.465 10.916 24.381 24.381 24.381s24.381-10.916 24.381-24.381v0-82.857c0-0.001 0-0.003 0-0.004 0-8.083 6.54-14.638 14.617-14.663h82.907c13.465 0 24.381-10.916 24.381-24.381s-10.916-24.381-24.381-24.381v0z" />
<glyph unicode="&#xe24f;" glyph-name="insert-invitation" d="M316.952 755.809c-0.004 0-0.009 0-0.014 0-13.457 0-24.367 10.909-24.367 24.367 0 0.005 0 0.010 0 0.015v-0.001 121.905c0 13.465 10.916 24.381 24.381 24.381s24.381-10.916 24.381-24.381v0-121.905c0-0.004 0-0.009 0-0.014 0-13.457-10.909-24.367-24.367-24.367-0.005 0-0.010 0-0.015 0h0.001zM707.048 755.809c-0.004 0-0.009 0-0.014 0-13.457 0-24.367 10.909-24.367 24.367 0 0.005 0 0.010 0 0.015v-0.001 121.905c0 13.465 10.916 24.381 24.381 24.381s24.381-10.916 24.381-24.381v0-121.905c0-0.004 0-0.009 0-0.014 0-13.457-10.909-24.367-24.367-24.367-0.005 0-0.010 0-0.015 0h0.001zM911.848 877.714h-131.657c-13.465 0-24.381-10.916-24.381-24.381s10.916-24.381 24.381-24.381v0h131.657c0.079 0.002 0.173 0.002 0.267 0.002 7.933 0 14.364-6.431 14.364-14.364 0-0.094-0.001-0.187-0.003-0.281v0.014-131.657h-828.952v131.657c-0.002 0.079-0.002 0.173-0.002 0.267 0 7.933 6.431 14.364 14.364 14.364 0.095 0 0.189-0.001 0.283-0.003h131.641c13.465 0 24.381 10.916 24.381 24.381s-10.916 24.381-24.381 24.381v0h-131.655c-0.037 0-0.081 0-0.125 0-34.942 0-63.268-28.326-63.268-63.268 0-0.043 0-0.086 0-0.13v0.007-750.933c0-0.037 0-0.080 0-0.123 0-34.942 28.326-63.268 63.268-63.268 0.044 0 0.088 0 0.132 0h799.686c0.037 0 0.080 0 0.123 0 34.942 0 63.268 28.326 63.268 63.268 0 0.043 0 0.086 0 0.13v-0.007 750.933c0 0.037 0 0.080 0 0.123 0 34.942-28.326 63.268-63.268 63.268-0.043 0-0.086 0-0.13 0h0.007zM926.476 63.39c0.002-0.079 0.002-0.173 0.002-0.267 0-7.933-6.431-14.364-14.364-14.364-0.094 0-0.187 0.001-0.281 0.003h-799.679c-0.080-0.002-0.175-0.003-0.269-0.003-7.933 0-14.364 6.431-14.364 14.364 0 0.094 0.001 0.187 0.003 0.281v-0.014 570.514h828.952zM633.905 828.952h-243.81c-13.465 0-24.381 10.916-24.381 24.381s10.916 24.381 24.381 24.381v0h243.81c13.465 0 24.381-10.916 24.381-24.381s-10.916-24.381-24.381-24.381v0zM804.571 341.333h-390.095c-0.071 0.001-0.155 0.001-0.24 0.001-13.334 0-24.143-10.809-24.143-24.143 0-0.084 0-0.168 0.001-0.252v0.013-146.286c-0.001-0.071-0.001-0.155-0.001-0.24 0-13.334 10.809-24.143 24.143-24.143 0.084 0 0.168 0 0.252 0.001h390.082c0.071-0.001 0.155-0.001 0.24-0.001 13.334 0 24.143 10.809 24.143 24.143 0 0.084 0 0.168-0.001 0.252v-0.013 146.286c0.001 0.071 0.001 0.155 0.001 0.24 0 13.334-10.809 24.143-24.143 24.143-0.084 0-0.168 0-0.252-0.001h0.013zM438.857 292.571h146.286v-97.524h-146.286zM780.19 195.048h-146.286v97.524h146.286z" />
<glyph unicode="&#xe2c6;" glyph-name="file-upload" d="M512 243.809c-0.004 0-0.009 0-0.014 0-13.457 0-24.367 10.909-24.367 24.367 0 0.005 0 0.010 0 0.015v-0.001 575.049l-177.809-177.811c-4.38-4.235-10.354-6.844-16.938-6.844-13.465 0-24.381 10.916-24.381 24.381 0 6.584 2.609 12.558 6.851 16.945l219.993 219.996c4.183 3.91 9.761 6.374 15.912 6.569l0.038 0.001h1.429c6.19-0.197 11.769-2.661 15.966-6.585l-0.014 0.013 0.049-0.049v-0.024l0.571-0.548 219.38-219.38c4.235-4.38 6.844-10.354 6.844-16.938 0-13.465-10.916-24.381-24.381-24.381-6.584 0-12.558 2.609-16.945 6.851l-177.804 177.803v-575.049c0-0.004 0-0.009 0-0.014 0-13.457-10.909-24.367-24.367-24.367-0.005 0-0.010 0-0.015 0h0.001zM804.571 0h-585.143c-94.257 0-170.667 76.41-170.667 170.667s76.41 170.667 170.667 170.667v0h146.286c13.465 0 24.381-10.916 24.381-24.381s-10.916-24.381-24.381-24.381v0h-146.286c-67.326 0-121.905-54.579-121.905-121.905s54.579-121.905 121.905-121.905v0h585.143c67.326 0 121.905 54.579 121.905 121.905s-54.579 121.905-121.905 121.905v0h-146.286c-13.465 0-24.381 10.916-24.381 24.381s10.916 24.381 24.381 24.381v0h146.286c94.257 0 170.667-76.41 170.667-170.667s-76.41-170.667-170.667-170.667v0z" />
<glyph unicode="&#xe2c7;" glyph-name="folder" d="M911.829 780.209h-380.331c-9.771 0-14.635 0-19.499 9.771l-92.629 68.267c-14.635 14.635-29.269 19.499-48.768 19.499h-258.432c-34.133 0-63.403-29.269-63.403-63.403v-702.165c0-34.133 29.269-63.403 63.403-63.403h799.701c34.133 0 63.403 29.269 63.403 63.403v604.629c0 34.133-29.269 63.403-63.403 63.403zM97.536 814.342c0 9.771 4.864 14.635 14.635 14.635h258.432c4.864 0 14.635 0 19.499-9.771l87.765-73.131c19.499-9.771 34.133-14.635 53.632-14.635h380.331c9.771 0 14.635-4.864 14.635-14.635v-34.133h-828.971v131.669zM926.464 112.134c0-9.771-4.864-14.635-14.635-14.635h-799.701c-9.771 0-14.635 4.864-14.635 14.635v521.771h828.971v-521.771z" />
<glyph unicode="&#xe313;" glyph-name="expand-more" d="M170.667 633.905c0.009 0 0.019 0 0.029 0 6.723 0 12.809-2.73 17.209-7.142l324.096-324.098 324.095 324.096c4.38 4.235 10.354 6.844 16.938 6.844 13.465 0 24.381-10.916 24.381-24.381 0-6.584-2.609-12.558-6.851-16.945l-341.326-341.326c-4.411-4.413-10.505-7.142-17.237-7.142s-12.826 2.729-17.237 7.142l-341.333 341.333c-4.411 4.412-7.139 10.506-7.139 17.238 0 13.464 10.914 24.379 24.377 24.381v0z" />
<glyph unicode="&#xe316;" glyph-name="expand-less" d="M853.333 292.571c-0.009 0-0.019 0-0.029 0-6.723 0-12.809 2.73-17.209 7.142l-324.096 324.098-324.095-324.097c-4.38-4.235-10.354-6.844-16.938-6.844-13.465 0-24.381 10.916-24.381 24.381 0 6.584 2.609 12.558 6.851 16.945l341.326 341.326c4.411 4.413 10.505 7.142 17.237 7.142s12.826-2.729 17.237-7.142l341.333-341.333c4.41-4.412 7.137-10.506 7.137-17.236 0-13.463-10.913-24.378-24.375-24.381v0z" />
<glyph unicode="&#xe317;" glyph-name="keyboard-arrow-left2" d="M658.286 97.524c-0.009 0-0.019 0-0.029 0-6.723 0-12.809 2.73-17.209 7.142l-341.334 341.334c-4.413 4.411-7.142 10.505-7.142 17.237s2.729 12.826 7.142 17.237l341.333 341.333c4.38 4.235 10.354 6.844 16.938 6.844 13.465 0 24.381-10.916 24.381-24.381 0-6.584-2.609-12.558-6.851-16.945l-324.088-324.088 324.096-324.095c4.411-4.412 7.139-10.507 7.139-17.238 0-13.464-10.913-24.378-24.376-24.381v0z" />
<glyph unicode="&#xe318;" glyph-name="keyboard-arrow-right2" d="M365.714 828.952c0.009 0 0.019 0 0.029 0 6.723 0 12.809-2.73 17.209-7.142l341.334-341.334c4.413-4.411 7.142-10.505 7.142-17.237s-2.729-12.826-7.142-17.237l-341.333-341.333c-4.38-4.235-10.354-6.844-16.938-6.844-13.465 0-24.381 10.916-24.381 24.381 0 6.584 2.609 12.558 6.851 16.945l324.088 324.088-324.097 324.095c-4.411 4.412-7.139 10.507-7.139 17.238 0 13.464 10.914 24.379 24.377 24.381v0z" />
<glyph unicode="&#xe32b;" glyph-name="sim-card" d="M809.452 747.036l-161.407 160.416c-11.334 11.738-27.21 19.027-44.788 19.027-0.2 0-0.399-0.001-0.598-0.003h-392.005c-17.746-0.036-33.788-7.306-45.338-19.017l-0.007-0.007c-11.742-11.454-19.024-27.432-19.024-45.111 0-0.082 0-0.165 0-0.247v0.013-797.738c0-0.017 0-0.037 0-0.058 0-35.518 28.793-64.312 64.312-64.312 0.020 0 0.040 0 0.061 0h553.437c0.017 0 0.038 0 0.058 0 35.518 0 64.312 28.793 64.312 64.312 0 0.020 0 0.040 0 0.061v-0.003 637.322c-0.034 17.745-7.299 33.786-19.005 45.338l-0.007 0.007zM779.702 64.369c0.001-0.059 0.001-0.13 0.001-0.2 0-8.51-6.899-15.409-15.409-15.409-0.070 0-0.14 0-0.21 0.001h-553.429c-0.058-0.001-0.126-0.001-0.194-0.001-8.513 0-15.414 6.901-15.414 15.414 0 0.068 0 0.137 0.001 0.205v-0.010 797.738c-0.008 0.179-0.012 0.389-0.012 0.601 0 8.295 6.724 15.019 15.019 15.019 0.211 0 0.421-0.004 0.63-0.013l-0.030 0.001h392.035c0.125 0.004 0.273 0.006 0.421 0.006 4.204 0 8.017-1.673 10.809-4.39l-0.004 0.003 161.393-160.929c2.715-2.728 4.393-6.489 4.393-10.642 0-0.025 0-0.051 0-0.076v0.004zM635.368 633.905h-295.497c-0.039 0-0.086 0-0.133 0-52.98 0-95.928-42.949-95.928-95.928 0-0.047 0-0.093 0-0.14v0.007-295.497c0-0.039 0-0.086 0-0.133 0-52.98 42.949-95.928 95.928-95.928 0.047 0 0.093 0 0.14 0h295.49c0.039 0 0.086 0 0.133 0 52.98 0 95.928 42.949 95.928 95.928 0 0.047 0 0.093 0 0.14v-0.007 295.497c0 0.039 0 0.086 0 0.133 0 52.98-42.949 95.928-95.928 95.928-0.047 0-0.093 0-0.14 0h0.007zM438.857 585.143h97.524v-97.524h-97.524zM390.095 195.048h-50.225c-0.080 0-0.175-0.001-0.27-0.001-25.974 0-47.029 21.056-47.029 47.029 0 0.095 0 0.19 0.001 0.285v-0.015 50.225h97.524zM438.857 195.048v97.524h97.524v-97.524zM682.667 242.347c0-0.080 0.001-0.175 0.001-0.27 0-25.974-21.056-47.029-47.029-47.029-0.095 0-0.19 0-0.285 0.001h-50.21v97.524h97.524zM682.667 341.333h-390.095v196.51c0 0.080-0.001 0.175-0.001 0.27 0 25.974 21.056 47.029 47.029 47.029 0.095 0 0.19 0 0.285-0.001h50.21v-121.905c-0.001-0.071-0.001-0.155-0.001-0.24 0-13.334 10.809-24.143 24.143-24.143 0.084 0 0.168 0 0.252 0.001h268.177zM682.667 487.619h-97.524v97.524h50.225c0.080 0 0.175 0.001 0.27 0.001 25.974 0 47.029-21.056 47.029-47.029 0-0.095 0-0.19-0.001-0.285v0.015z" />
<glyph unicode="&#xe3ba;" glyph-name="control-point" d="M512 0.006c-255.829 0-463.232 207.403-463.232 463.232s207.403 463.232 463.232 463.232c255.829 0 463.232-207.403 463.232-463.232v0c-0.299-255.701-207.531-462.933-463.189-463.232h-0.043zM512 877.702c-228.907 0-414.464-185.557-414.464-414.464s185.557-414.464 414.464-414.464c228.907 0 414.464 185.557 414.464 414.464v0c-0.299 228.779-185.685 414.208-414.464 414.464h-0.043zM512 195.035c0 0 0 0 0 0-13.44 0-24.363 10.923-24.363 24.363 0 0 0 0 0 0v0 219.435h-219.435c-13.483 0-24.363 10.923-24.363 24.363s10.923 24.363 24.363 24.363v0h219.435v219.435c0 13.483 10.923 24.363 24.363 24.363s24.363-10.923 24.363-24.363v0-219.435h219.435c13.483 0 24.363-10.923 24.363-24.363s-10.923-24.363-24.363-24.363v0h-219.435v-219.435c0 0 0 0 0 0 0-13.44-10.923-24.363-24.363-24.363 0 0 0 0 0 0v0z" />
<glyph unicode="&#xe3e7;" glyph-name="flash-on" d="M149.19 1.548c-20.387 0.025-36.904 16.558-36.904 36.948 0 5.913 1.389 11.501 3.858 16.456l-0.097-0.214 197.524 384.119h-128.238c-0.517-0.025-1.123-0.039-1.733-0.039-14.149 0-26.51 7.654-33.169 19.048l-0.098 0.182c-2.066 4.364-3.271 9.48-3.271 14.878 0 9.224 3.521 17.626 9.293 23.935l-0.024-0.027 205.141 357.595c9.556 13.947 25.311 23.041 43.204 23.285h466.608c0.007 0 0.015 0 0.022 0 19.686 0 35.645-15.959 35.645-35.645 0-10.281-4.352-19.545-11.315-26.050l-0.020-0.019-221.143-230.857h149.905c19.376-0.002 35.083-15.71 35.083-35.087 0-10.93-4.997-20.692-12.832-27.127l-0.061-0.049-675.046-513.428c-5.988-4.921-13.731-7.905-22.171-7.905-0.057 0-0.114 0-0.171 0h0.009zM141.857 48.143l-0.571-0.428zM207.143 487.643l146.381-0.024c13.459-0.002 24.369-10.912 24.369-24.371 0-4.073-0.999-7.912-2.766-11.287l0.064 0.134-191.191-371.93 599.809 456.216h-166.476c-0.001 0-0.003 0-0.005 0-13.465 0-24.381 10.916-24.381 24.381 0 6.544 2.578 12.486 6.775 16.866l-0.008-0.009 240.857 251.333h-435.857zM824.381 536.381v0zM861.379 850.69l-0.619-0.643z" />
<glyph unicode="&#xe52d;" glyph-name="beenhere" d="M512 7.345c0 0-0.043 0-0.085 0-11.861 0-22.741 4.267-31.189 11.349l0.085-0.043-268.245 223.488c-10.752 9.003-17.536 22.4-17.536 37.376 0 0.043 0 0.085 0 0.085v0 598.101c0.043 26.923 21.845 48.725 48.768 48.768h536.405c26.923-0.043 48.725-21.845 48.768-48.768v-598.101c0-0.043 0-0.043 0-0.085 0-14.976-6.784-28.416-17.451-37.333l-0.085-0.043-268.203-223.488c-8.405-7.040-19.285-11.264-31.189-11.264 0 0-0.043 0-0.043 0v0zM243.797 877.702v-598.101l268.203-223.488 268.203 223.488v598.101zM487.637 365.702c0 0 0 0 0 0-6.741 0-12.8 2.731-17.237 7.125v0l-121.899 121.899c-4.224 4.395-6.827 10.368-6.827 16.939 0 13.483 10.923 24.363 24.363 24.363 6.571 0 12.544-2.603 16.939-6.869l101.717-101.717 178.304 245.12c4.48 6.187 11.648 10.112 19.797 10.112 13.483 0 24.363-10.923 24.363-24.363 0-5.419-1.792-10.453-4.779-14.507l0.043 0.085-195.029-268.203c-4.139-5.589-10.453-9.387-17.707-9.984h-0.085z" />
<glyph unicode="&#xe531;" glyph-name="directions-car" d="M1020.583 595.87c-6.333 22.918-25.844 75.581-65.821 75.581-11.677-0.274-22.702-2.76-32.771-7.053l0.58 0.22c-6.333-2.428-12.19-4.381-18.524-6.333q-9.518 33.643-16.095 61.44c-43.881 170.668-63.881 206.751-376.44 206.751-310.607 0-330.606-35.596-372.536-203.333-4.881-19.512-10.238-41.452-17.072-65.345-6.833 1.95-13.653 4.393-20.476 6.821-9.489 4.073-20.514 6.559-32.086 6.83l-0.105 0.002c-39.976 0-59.486-52.666-65.821-75.581-2.101-6.386-3.313-13.736-3.313-21.369 0-33.453 23.275-61.47 54.514-68.741l0.477-0.093c-7.801-14.485-14.029-31.274-17.811-48.97l-0.225-1.255c-5.834-31.355-9.17-67.432-9.17-104.288 0-39.694 3.87-78.484 11.254-116.013l-0.621 3.787c8.777-45.344 20.968-70.702 60.952-80.452v-88.262c-0.008-0.388-0.012-0.846-0.012-1.305 0-37.327 29.664-67.725 66.703-68.906l0.109-0.003h60.465c37.12 1.007 66.827 31.338 66.827 68.608 0 0.565-0.007 1.128-0.020 1.689l0.002-0.083v72.168c84.846-4.869 158.964-5.845 214.548-5.845h7.81c55.583 0 129.702 0.975 214.548 5.845v-72.168c-0.012-0.478-0.019-1.041-0.019-1.606 0-37.271 29.708-67.602 66.736-68.606l0.093-0.002h60.465c37.148 1.185 66.811 31.583 66.811 68.909 0 0.459-0.004 0.917-0.013 1.374l0.001-0.068v88.75c38.034 9.262 50.225 33.643 60.952 79.488 7.944 33.361 12.5 71.665 12.5 111.032 0 38.589-4.377 76.155-12.661 112.23l0.649-3.358c-6.236 19.175-12.346 34.669-19.232 49.734l1.197-2.922c32.211 7.164 55.937 35.493 55.937 69.364 0 7.62-1.201 14.96-3.424 21.841l0.14-0.502zM186.274 711.44c36.083 144.331 41.928 166.274 325.238 166.274 285.75 0 291.596-22.43 329.143-170.179 4.881-19.012 10.24-39.5 17.072-62.415-61.092-12.409-131.314-19.512-203.194-19.512-1.765 0-3.528 0.004-5.291 0.013l0.272-0.001c-30.726-0.975-96.549-1.463-135.070-1.463h-4.881c-38.522 0-104.345 0.488-136.046 1.463-1.149-0.004-2.508-0.007-3.868-0.007-70.898 0-140.179 6.923-207.204 20.13l6.76-1.11c6.344 24.381 12.19 46.808 17.070 66.808zM244.785 70.214c0.044-0.495 0.069-1.070 0.069-1.651 0-10.358-7.922-18.866-18.038-19.796l-0.078-0.006h-60.465c-10.208 1.112-18.083 9.685-18.083 20.097 0 0.477 0.017 0.95 0.049 1.419l-0.004-0.063v82.405c33.155-2.916 65.333-5.357 96.549-7.798zM875.761 70.214c0.029-0.406 0.046-0.879 0.046-1.356 0-10.411-7.873-18.984-17.99-20.088l-0.090-0.008h-60.465c-10.194 0.935-18.116 9.443-18.116 19.801 0 0.581 0.025 1.156 0.074 1.725l-0.005-0.074v74.609c31.214 2.438 63.393 4.881 96.549 7.798zM950.857 550.522c-8.286-2.438-16.583-5.369-24.381-7.81-6.655-2.046-11.924-6.836-14.571-13.015l-0.057-0.15c-1.54-3.071-2.442-6.692-2.442-10.523 0-3.421 0.719-6.675 2.014-9.618l-0.060 0.153 3.417-6.333c8.35-16.072 16.749-35.561 23.84-55.667l1.028-3.346c6.129-27.982 9.639-60.125 9.639-93.087 0-36.157-4.224-71.327-12.205-105.044l0.616 3.083c-9.752-42.905-13.653-43.393-39.5-45.833l-6.821-0.488c-149.702-14.629-287.202-17.547-375.464-17.547h-7.81c-88.742-0.002-225.768 2.917-375.467 17.548l-6.821 0.488c-26.337 2.93-31.216 2.93-39.503 45.358-6.021 30.638-9.466 65.867-9.466 101.901 0 34.122 3.089 67.522 9.003 99.937l-0.513-3.385c5.125 20.701 13.002 38.912 23.375 55.395l-0.457-0.777c2.441 3.905 3.905 6.821 4.393 7.798 1.118 2.79 1.767 6.024 1.767 9.41 0 3.831-0.83 7.468-2.321 10.74l0.066-0.162c-2.705 6.332-7.976 11.124-14.469 13.125l-0.163 0.043c-7.798 2.441-16.095 5.37-24.381 8.295-29.262 10.24-25.356 23.406-22.918 31.202 4.059 15.439 10.598 28.951 19.252 40.822l-0.239-0.344c5.333-0.133 10.344-1.379 14.853-3.512l-0.224 0.095c79.633-27.080 171.364-42.71 266.745-42.71 7.88 0 15.735 0.107 23.564 0.319l-1.154-0.025c31.214-0.975 97.524-1.463 136.533-1.463h4.881c39.010 0 105.321 0.488 136.533 1.463 6.52-0.178 14.194-0.279 21.892-0.279 95.561 0 187.473 15.625 273.32 44.46l-6.052-1.763c3.4 1.465 7.468 2.805 11.67 3.8l0.52 0.104c10.427-11.058 17.968-24.949 21.348-40.397l0.104-0.568c2.441-7.798 6.347-20.963-22.915-31.691zM628.476 292.571h-228.095c-13.465 0-24.381 10.916-24.381 24.381s10.916 24.381 24.381 24.381v0h228.095c13.465 0 24.381-10.916 24.381-24.381s-10.916-24.381-24.381-24.381v0zM235.143 268.142c-1.91-0.129-4.14-0.203-6.387-0.203-52.953 0-96.361 40.869-100.4 92.786l-0.022 0.346-0.049 8.809c-0.667 4.082-1.048 8.786-1.048 13.579 0 20.281 6.823 38.968 18.298 53.891l-0.154-0.209c11.493 10.572 26.894 17.053 43.808 17.053 1.659 0 3.304-0.062 4.932-0.185l-0.217 0.013c51.095 0 151.238-48.62 151.238-107.381 0.001-47.69-43.189-78.5-109.999-78.5zM193.905 405.26c-0.839 0.1-1.812 0.157-2.797 0.157-4.047 0-7.87-0.964-11.25-2.675l0.142 0.065c-2.141-7.173-3.374-15.414-3.374-23.944 0-3.005 0.153-5.974 0.451-8.899l-0.030 0.368 0.049-9.262c0-23.953 26.571-44.167 58.048-44.167 6.285 0 61.238 0.833 61.238 29.738-0.001 17.001-61.763 58.619-102.477 58.619zM787.619 268.142c-66.809 0-110 30.81-110 78.5 0 58.762 100.096 107.381 151.191 107.381 1.403 0.108 3.039 0.17 4.689 0.17 16.923 0 32.332-6.48 43.882-17.093l-0.047 0.042c11.32-14.717 18.142-33.406 18.142-53.689 0-4.791-0.381-9.493-1.113-14.078l0.067 0.505-0.049-8.809c-4.055-52.26-47.459-93.13-100.409-93.13-2.235 0-4.453 0.073-6.651 0.216l0.299-0.016zM828.81 405.26c-40.716 0-102.429-41.619-102.429-58.619 0-28.905 54.955-29.738 61.238-29.738 1.817-0.223 3.92-0.35 6.052-0.35 26.191 0 47.908 19.153 51.909 44.217l0.039 0.3 0.049 9.262c0.271 2.553 0.425 5.516 0.425 8.515 0 8.539-1.251 16.785-3.58 24.566l0.156-0.605c-3.211 1.65-7.006 2.617-11.027 2.617-0.998 0-1.982-0.060-2.949-0.175l0.117 0.011z" />
<glyph unicode="&#xe53b;" glyph-name="layers" d="M512.429 441.476c-10.626 0.010-20.654 2.56-29.513 7.076l0.37-0.171-406.382 169.809c-15.32 7.154-25.765 22.394-25.856 40.083v0.012c0 0.049 0 0.107 0 0.165 0 17.079 9.774 31.876 24.034 39.102l0.25 0.115 409.574 171.285c7.953 3.869 17.301 6.131 27.177 6.131 10.409 0 20.231-2.512 28.893-6.964l-0.356 0.166 406.476-169.905c15.321-7.154 25.766-22.394 25.857-40.083v-0.012c0-0.049 0-0.107 0-0.165 0-17.079-9.774-31.876-24.034-39.102l-0.25-0.115c-0.446-0.26-0.964-0.501-1.506-0.694l-0.065-0.020-408-170.524c-7.648-3.904-16.681-6.192-26.248-6.192-0.148 0-0.295 0.001-0.443 0.002h0.023zM107.286 658.237l396.381-165.619c2.358-1.381 5.193-2.197 8.219-2.197 2.476 0 4.824 0.546 6.931 1.525l-0.102-0.042 398 166.431-396.381 165.666c-2.354 1.388-5.186 2.208-8.209 2.208-2.517 0-4.902-0.568-7.033-1.584l0.099 0.042zM937.714 640.666v0zM512.381 243.761c-10.514 0-20.444 2.499-29.23 6.933l0.372-0.17-405.475 169.667c-14.601 6.91-24.714 21.15-25.614 37.84l-0.005 0.112c-0.026 0.569-0.041 1.236-0.041 1.907 0 15.718 8.255 29.508 20.666 37.271l0.184 0.108 65.097 40.238c3.642 2.281 8.068 3.634 12.81 3.634 13.473 0 24.396-10.922 24.396-24.396 0-8.732-4.587-16.392-11.484-20.702l-0.103-0.060-57.095-35.238 397.046-166.095c2.302-1.333 5.064-2.12 8.010-2.12 2.431 0 4.736 0.536 6.805 1.495l-0.1-0.042 401.095 167.905-59.668 34.095c-6.999 4.37-11.586 12.030-11.586 20.762 0 13.473 10.922 24.396 24.396 24.396 4.742 0 9.167-1.353 12.912-3.693l-0.103 0.060 65.097-40.191c12.596-7.865 20.853-21.652 20.853-37.367 0-17.039-9.707-31.812-23.892-39.089l-0.247-0.115-408.526-171.049c-7.621-3.845-16.611-6.097-26.127-6.097-0.156 0-0.312 0.001-0.468 0.002h0.024zM512.381 48.713c-10.514 0-20.444 2.499-29.23 6.933l0.372-0.17-405.475 169.667c-14.601 6.91-24.714 21.15-25.614 37.84l-0.005 0.112c-0.026 0.569-0.041 1.236-0.041 1.907 0 15.718 8.255 29.508 20.666 37.271l0.184 0.108 65.097 40.238c3.642 2.281 8.068 3.634 12.81 3.634 13.473 0 24.396-10.922 24.396-24.396 0-8.732-4.587-16.392-11.484-20.702l-0.103-0.060-57.095-35.238 397.046-166.095c2.297-1.344 5.057-2.138 8.002-2.138 2.435 0 4.743 0.542 6.81 1.513l400.997 167.864-59.668 34.095c-6.999 4.37-11.586 12.030-11.586 20.762 0 13.473 10.922 24.396 24.396 24.396 4.742 0 9.167-1.353 12.912-3.693l-0.103 0.060 65.097-40.191c12.596-7.865 20.853-21.652 20.853-37.367 0-17.039-9.707-31.812-23.892-39.089l-0.247-0.115-408.526-171.049c-7.621-3.845-16.611-6.097-26.127-6.097-0.156 0-0.312 0.001-0.468 0.002h0.024z" />
<glyph unicode="&#xe53d;" glyph-name="local-airport" d="M354.19 0.381c-1.047 0-2.048 0-3.095 0.098-14.727 1.231-27.089 10.258-33.039 22.898l-0.104 0.245-50.476 109.379-1.429-1.191c-13.795-12.539-31.854-20.606-51.766-21.798l-0.234-0.011h-0.476c-0.307-0.008-0.668-0.013-1.030-0.013-16.928 0-31.472 10.203-37.82 24.794l-0.103 0.266c-1.605 5.054-2.53 10.867-2.53 16.896 0 16.816 7.196 31.951 18.677 42.494l0.042 0.038-112.572 29.905c-17.31 4.809-29.803 20.429-29.803 38.966 0 10.257 3.825 19.621 10.126 26.743l-0.037-0.043 55.524 63c7.382 8.331 18.109 13.555 30.055 13.555 0.886 0 1.765-0.029 2.636-0.085l-0.119 0.006 162.809-10.381 151.334 150.904-377.238 117.286c-16.485 5.325-28.2 20.536-28.2 38.483 0 13.015 6.161 24.592 15.726 31.972l0.094 0.070 76.38 58.191c7.025 5.121 15.828 8.193 25.35 8.193 0.112 0 0.223 0 0.334-0.001h-0.017l501.714-19.905c61.688 61.761 128.857 118.017 200.726 167.986l4.798 3.157c14.144 8.36 31.031 13.588 49.076 14.325l0.21 0.007c0.3 0.007 0.654 0.011 1.009 0.011 16.377 0 30.771-8.488 39.024-21.304l0.111-0.183c4.577-9.573 7.25-20.807 7.25-32.665 0-15.158-4.368-29.296-11.913-41.223l0.187 0.317c-51.344-73.708-105.328-138.333-164.391-197.915l0.105 0.106 66.19-527.81c0.19-1.476 0.298-3.183 0.298-4.916 0-12.643-5.761-23.94-14.801-31.41l-0.069-0.055-48.381-39.619c-6.804-5.618-15.613-9.026-25.219-9.026-16.012 0-29.813 9.469-36.108 23.113l-0.102 0.247-165.381 360.476-164.62-164.096 33-108.238c1.131-3.539 1.783-7.61 1.783-11.833 0-8.357-2.552-16.118-6.92-22.545l0.090 0.14-53.428-80.194c-7.271-10.785-19.435-17.789-33.235-17.807h-0.003zM275.714 197.762c0.037 0 0.080 0 0.123 0 1.369 0 2.71-0.121 4.013-0.354l-0.137 0.020c8.091-1.396 14.725-6.599 18.079-13.661l0.063-0.148 57.765-125.238 42.476 63.762-36.095 118.524c-0.67 2.126-1.056 4.571-1.056 7.106 0 6.745 2.733 12.853 7.151 17.275v0l199.762 199.192c4.467 4.376 10.59 7.077 17.344 7.077 1.493 0 2.956-0.132 4.377-0.385l-0.15 0.022c7.984-1.465 14.5-6.676 17.747-13.707l0.062-0.15 175.189-381.857 35.905 29.381-67.048 534.524c-0.122 0.916-0.191 1.975-0.191 3.051 0 6.425 2.481 12.271 6.538 16.631l-0.014-0.015c58.186 58.373 111.794 121.393 160.191 188.426l3.143 4.574c4.071 7.563 6.753 16.443 7.461 25.873l0.013 0.221c-9.797-1.388-18.62-4.575-26.472-9.229l0.33 0.181c-74.91-52.816-140.658-108.635-201.048-169.76l-0.143-0.145c-4.506-4.194-10.568-6.768-17.232-6.768-0.203 0-0.405 0.002-0.607 0.007l0.030-0.001-508.711 20.191-60.859-46.381 400.143-124.381c10.013-3.203 17.135-12.428 17.135-23.315 0-6.736-2.726-12.836-7.136-17.255v0l-187.76-187.239c-4.416-4.387-10.502-7.099-17.221-7.099-0.559 0-1.113 0.019-1.663 0.056l0.074-0.004-169.524 10.81-43.666-49.619 138.81-36.857c10.534-2.842 18.158-12.311 18.158-23.56 0-6.62-2.64-12.623-6.925-17.015l0.005 0.005-21.19-22c-0.762-0.809-1.428-1.571-2.097-2.333 1.285 0.952 2.666 1.999 4.096 3.19 8.429 6.792 15.975 13.614 23.12 20.834l0.023 0.024c4.43 4.638 10.662 7.522 17.569 7.522 0.018 0 0.036 0 0.054 0h-0.003zM818.905 100.14v0zM821.953 107.569l-0.098-0.049zM399.284 118.378v0zM143.333 317.854v0zM150.714 320.95l-0.049-0.095zM177.143 714.331l-0.049-0.049zM928.191 880v0z" />
<glyph unicode="&#xe54b;" glyph-name="local-library" d="M872.857 0h-136.571c-29.601 0.030-53.589 24.018-53.619 53.616v672.955c0.030 29.601 24.018 53.589 53.616 53.619h136.574c29.601-0.030 53.589-24.018 53.619-53.616v-672.955c-0.030-29.601-24.018-53.589-53.616-53.619h-0.003zM736.286 731.428c-2.678-0.011-4.846-2.179-4.857-4.856v-672.953c0.011-2.678 2.179-4.846 4.856-4.857h136.572c2.678 0.011 4.846 2.179 4.857 4.856v672.953c-0.011 2.678-2.179 4.846-4.856 4.857h-0.001zM580.286 0h-136.571c-29.601 0.030-53.589 24.018-53.619 53.616v819.241c0.030 29.601 24.018 53.589 53.616 53.619h136.574c29.601-0.030 53.589-24.018 53.619-53.616v-819.241c-0.030-29.601-24.018-53.589-53.616-53.619h-0.003zM443.714 877.714c-2.678-0.011-4.846-2.179-4.857-4.856v-819.239c0.011-2.678 2.179-4.846 4.856-4.857h136.572c2.678 0.011 4.846 2.179 4.857 4.856v819.239c-0.011 2.678-2.179 4.846-4.856 4.857h-0.001zM287.714 0h-136.571c-29.601 0.030-53.589 24.018-53.619 53.616v721.717c0.030 29.601 24.018 53.589 53.616 53.619h136.574c29.601-0.030 53.589-24.018 53.619-53.616v-721.717c-0.030-29.601-24.018-53.589-53.616-53.619h-0.003zM151.143 780.19c-2.678-0.011-4.846-2.179-4.857-4.856v-721.715c0.011-2.678 2.179-4.846 4.856-4.857h136.572c2.678 0.011 4.846 2.179 4.857 4.856v721.715c-0.011 2.678-2.179 4.846-4.856 4.857h-0.001zM838.715 97.524h-68.286c-13.465 0-24.381 10.916-24.381 24.381s10.916 24.381 24.381 24.381v0h68.286c13.465 0 24.381-10.916 24.381-24.381s-10.916-24.381-24.381-24.381v0zM546.143 97.524h-68.286c-13.465 0-24.381 10.916-24.381 24.381s10.916 24.381 24.381 24.381v0h68.286c13.465 0 24.381-10.916 24.381-24.381s-10.916-24.381-24.381-24.381v0zM253.572 97.524h-68.286c-13.465 0-24.381 10.916-24.381 24.381s10.916 24.381 24.381 24.381v0h68.286c13.465 0 24.381-10.916 24.381-24.381s-10.916-24.381-24.381-24.381v0zM838.715 633.905h-68.286c-13.465 0-24.381 10.916-24.381 24.381s10.916 24.381 24.381 24.381v0h68.286c13.465 0 24.381-10.916 24.381-24.381s-10.916-24.381-24.381-24.381v0zM253.572 682.667h-68.286c-13.465 0-24.381 10.916-24.381 24.381s10.916 24.381 24.381 24.381v0h68.286c13.465 0 24.381-10.916 24.381-24.381s-10.916-24.381-24.381-24.381v0zM546.143 780.19h-68.286c-13.465 0-24.381 10.916-24.381 24.381s10.916 24.381 24.381 24.381v0h68.286c13.465 0 24.381-10.916 24.381-24.381s-10.916-24.381-24.381-24.381v0z" />
<glyph unicode="&#xe54e;" glyph-name="local-offer" d="M430.476-1.19c-0.023 0-0.051 0-0.078 0-15.335 0-29.216 6.225-39.254 16.286l-326.095 326.095c-10.025 10.094-16.221 24.003-16.221 39.358 0 15.331 6.176 29.22 16.176 39.313l482.996 483.186c6.825 6.833 15.421 11.894 25.042 14.437l0.387 0.087c12.155 5.624 26.38 8.905 41.371 8.905 0.037 0 0.074 0 0.111 0h259.851c0.105 0 0.23 0.001 0.355 0.001 55.305 0 100.138-44.833 100.138-100.138 0-0.638-0.006-1.275-0.018-1.91l0.001 0.095v-259.905c0.009-0.494 0.014-1.076 0.014-1.659 0-17.076-4.233-33.164-11.708-47.271l0.265 0.549c-2.203-7.104-6.019-13.165-11.034-17.987l-0.014-0.013-482.952-483.143c-10.039-10.061-23.92-16.286-39.254-16.286-0.028 0-0.056 0-0.084 0h0.004zM614.905 877.714c-0.024 0-0.052 0-0.081 0-8.309 0-16.162-1.952-23.125-5.422l0.301 0.136c-1.724-0.841-3.73-1.531-5.828-1.97l-0.17-0.030-486.479-485.001c-1.232-1.257-1.993-2.98-1.993-4.88 0-1.925 0.78-3.668 2.041-4.93l326.047-326.047c1.246-1.236 2.962-2 4.857-2s3.611 0.764 4.857 2v0l482.951 483.143c0.888 2.729 1.759 4.935 2.741 7.080l-0.17-0.414c3.556 6.917 5.641 15.093 5.641 23.756 0 0.521-0.008 1.041-0.023 1.558l0.002-0.076v259.905c0.010 0.379 0.016 0.824 0.016 1.272 0 28.608-23.137 51.811-51.72 51.919h-0.010zM780.905 636.001c-53.14 0.189-96.144 43.311-96.144 96.476 0 53.283 43.194 96.477 96.477 96.477s96.477-43.194 96.477-96.477c0-0.001 0-0.001 0-0.002v0c-0.155-53.315-43.411-96.474-96.747-96.474-0.022 0-0.044 0-0.066 0h0.003zM780.905 780.19c-26.209-0.188-47.383-21.479-47.383-47.714 0-26.353 21.363-47.715 47.715-47.715s47.715 21.363 47.715 47.715v0c-0.1 26.374-21.504 47.715-47.891 47.715-0.055 0-0.11 0-0.165 0h0.009z" />
<glyph unicode="&#xe55e;" glyph-name="pin-drop" d="M512 0.095c-4.996-0.087-10.891-0.137-16.798-0.137-107.113 0-210.417 16.308-307.565 46.577l7.315-1.964c-94.286 31.714-146.191 77.619-146.191 129.334 0 51.667 51.905 97.573 146.143 129.333 13.333 4.524 27.762 8.762 42.952 12.714 1.843 0.5 3.959 0.787 6.143 0.787 13.453 0 24.359-10.906 24.359-24.359 0-11.269-7.653-20.752-18.045-23.532l-0.17-0.039c-14.047-3.667-27.333-7.619-39.619-11.762-83.428-28.095-113-62.333-113-83.142s29.572-55.096 112.953-83.143c85.18-26.68 183.124-42.049 284.658-42.049 5.93 0 11.849 0.052 17.754 0.157l-0.889-0.012c5.018-0.092 10.935-0.144 16.865-0.144 101.535 0 199.48 15.37 291.635 43.91l-6.977-1.861c83.381 28.095 112.953 62.381 112.953 83.19 0 20.762-29.572 55-113 83.143-12.476 4.191-25.905 8.192-40.143 11.905-10.566 2.789-18.23 12.26-18.23 23.522 0 2.202 0.293 4.336 0.842 6.364l-0.039-0.17c2.672 10.582 12.107 18.289 23.342 18.289 2.268 0 4.462-0.314 6.542-0.901l-0.169 0.041c15.381-3.998 29.952-8.286 43.476-12.857 94.236-31.763 146.14-77.714 146.14-129.335 0-51.667-51.905-97.621-146.143-129.381-89.857-28.305-193.188-44.612-300.328-44.612-5.896 0-11.78 0.049-17.652 0.148l0.885-0.012zM512 136.523c-42.19 0-316.952 307.143-316.952 472.096 0 175.048 141.904 316.952 316.952 316.952s316.952-141.904 316.952-316.952v0c-0.429-165-274.952-472.096-316.952-472.096zM512 877.714c-148.211-0.439-268.191-120.689-268.191-268.961 0-0.047 0-0.094 0-0.141v0.007c0-130.619 210.191-365.429 268.19-417.286 57.905 51.857 267.857 286.619 268.19 417.333 0 0.029 0 0.063 0 0.097 0 148.27-119.98 268.518-268.149 268.951h-0.042zM512 467.383c-80.25 1.316-144.799 66.679-144.799 147.119 0 81.262 65.876 147.138 147.138 147.138s147.138-65.876 147.138-147.138c0-0.008 0-0.017 0-0.025v0.001c-0.777-81.406-66.95-147.099-148.466-147.099-0.355 0-0.71 0.001-1.065 0.004h0.054zM512 712.859c-53.325-1.303-96.056-44.84-96.056-98.357 0-54.337 44.048-98.385 98.385-98.385 54.328 0 98.372 44.035 98.385 98.36v0.001c-0.739 54.493-45.086 98.384-99.685 98.384-0.362 0-0.723-0.002-1.084-0.006h0.055z" />
<glyph unicode="&#xe56b;" glyph-name="zoom-out-map" d="M658.476 585.333c-0.001 0-0.001 0-0.002 0-13.464 0-24.379 10.915-24.379 24.379 0 6.733 2.729 12.828 7.142 17.24l250.571 250.571h-183.19c-13.465 0-24.381 10.916-24.381 24.381s10.916 24.381 24.381 24.381v0l243.047-0.023c6.364-0.268 12.057-2.937 16.238-7.119v0c2.261-2.266 4.082-4.973 5.321-7.98l0.059-0.163c0.976-2.391 1.61-5.16 1.759-8.057l0.003-0.062v-243.047c0-13.465-10.916-24.381-24.381-24.381s-24.381 10.916-24.381 24.381v0 183.214l-250.571-250.571c-4.4-4.413-10.485-7.143-17.208-7.143-0.010 0-0.021 0-0.031 0h0.002zM365.524 585.333c-0.009 0-0.019 0-0.030 0-6.723 0-12.808 2.73-17.207 7.142l-250.572 250.572v-183.214c0-13.465-10.916-24.381-24.381-24.381s-24.381 10.916-24.381 24.381v0 243.047c0.151 2.959 0.784 5.728 1.821 8.29l-0.061-0.171c1.299 3.17 3.12 5.877 5.381 8.144v0c4.18 4.182 9.873 6.852 16.188 7.118l0.049 0.002 1.095 0.023h241.955c13.465 0 24.381-10.916 24.381-24.381s-10.916-24.381-24.381-24.381h-183.19l250.571-250.572c4.411-4.412 7.139-10.506 7.139-17.238 0-13.464-10.914-24.379-24.377-24.381v0zM950.666 0.191h-242.047c-13.465 0-24.381 10.916-24.381 24.381s10.916 24.381 24.381 24.381v0h183.19l-250.571 250.571c-4.308 4.394-6.967 10.418-6.967 17.063 0 13.464 10.915 24.379 24.379 24.379 6.645 0 12.67-2.659 17.067-6.971l250.567-250.567v183.192c0 13.465 10.916 24.381 24.381 24.381s24.381-10.916 24.381-24.381v0-243.023c-0.152-2.959-0.785-5.728-1.823-8.29l0.061 0.171c-1.299-3.17-3.12-5.877-5.381-8.144v0c-4.18-4.182-9.873-6.852-16.188-7.118l-0.049-0.002zM73.334 0.191l-1 0.023c-6.364 0.268-12.057 2.937-16.238 7.119v0c-2.261 2.266-4.082 4.973-5.321 7.98l-0.059 0.163c-0.976 2.391-1.61 5.16-1.759 8.057l-0.003 0.062v243.023c0 13.465 10.916 24.381 24.381 24.381s24.381-10.916 24.381-24.381v0-183.19l250.571 250.571c4.428 4.516 10.593 7.315 17.411 7.315 13.464 0 24.379-10.915 24.379-24.379 0-6.819-2.799-12.983-7.311-17.408l-250.574-250.577h183.19c13.465 0 24.381-10.916 24.381-24.381s-10.916-24.381-24.381-24.381v0h-242.047z" />
<glyph unicode="&#xe5c4;" glyph-name="arrow-back" d="M153.429 480.475l292.565 292.565c4.395 4.224 10.368 6.827 16.939 6.827 13.483 0 24.363-10.923 24.363-24.363 0-6.571-2.603-12.544-6.869-16.939l-250.965-250.965h623.829c13.483 0 24.363-10.923 24.363-24.363s-10.923-24.363-24.363-24.363v0h-623.829l250.965-250.965c4.608-4.437 7.424-10.667 7.424-17.536 0-13.483-10.923-24.363-24.363-24.363-6.869 0-13.099 2.859-17.536 7.424l-292.565 292.565c-4.395 4.395-7.125 10.496-7.125 17.237s2.731 12.843 7.125 17.237v0z" />
<glyph unicode="&#xe5c5;" glyph-name="arrow-drop-down" d="M268.048 585.143c0.009 0 0.019 0 0.029 0 6.723 0 12.809-2.73 17.209-7.142l226.382-226.574 226.762 226.572c4.44 4.592 10.655 7.443 17.537 7.443 13.465 0 24.381-10.916 24.381-24.381 0-6.882-2.851-13.097-7.436-17.53l-244.007-243.817c-4.41-4.413-10.503-7.143-17.235-7.143-0.001 0-0.001 0-0.002 0v0c-0.001 0-0.003 0-0.004 0-6.731 0-12.824 2.73-17.234 7.142l-243.62 243.81c-4.411 4.412-7.139 10.507-7.139 17.238 0 13.464 10.914 24.379 24.377 24.381v0z" />
<glyph unicode="&#xe5c6;" glyph-name="arrow-drop-down-circle" d="M512 0.006c-255.829 0-463.232 207.403-463.232 463.232s207.403 463.232 463.232 463.232c255.829 0 463.232-207.403 463.232-463.232v0c-0.299-255.701-207.531-462.933-463.189-463.232h-0.043zM512 877.702c-228.907 0-414.464-185.557-414.464-414.464s185.557-414.464 414.464-414.464c228.907 0 414.464 185.557 414.464 414.464v0c-0.256 228.779-185.685 414.208-414.464 414.464h-0.043zM513.365 292.571v0c0 0 0 0 0 0-6.741 0-12.843 2.731-17.237 7.125l-243.627 243.797c-4.309 4.395-6.955 10.411-6.955 17.067 0 13.483 10.923 24.363 24.363 24.363 6.656 0 12.672-2.645 17.067-6.955l226.389-226.56 226.773 226.56c4.395 4.309 10.411 6.955 17.067 6.955 13.483 0 24.363-10.923 24.363-24.363 0-6.656-2.645-12.672-6.955-17.067l-244.011-243.797c-4.395-4.395-10.496-7.125-17.237-7.125 0 0 0 0 0 0v0z" />
<glyph unicode="&#xe5c7;" glyph-name="arrow-drop-up" d="M755.952 341.333c-0.009 0-0.019 0-0.029 0-6.723 0-12.809 2.73-17.209 7.142l-226.382 226.574-226.762-226.573c-4.44-4.592-10.655-7.443-17.537-7.443-13.465 0-24.381 10.916-24.381 24.381 0 6.882 2.851 13.097 7.436 17.53l244.007 243.817c4.41 4.414 10.504 7.145 17.236 7.145 0 0 0 0 0 0v0c0.001 0 0.003 0 0.004 0 6.731 0 12.824-2.73 17.234-7.142l243.62-243.81c4.411-4.412 7.139-10.507 7.139-17.238 0-13.464-10.914-24.379-24.377-24.381v0z" />
<glyph unicode="&#xe5c8;" glyph-name="arrow-forward" d="M870.571 480.475l-292.565 292.565c-4.395 4.224-10.368 6.827-16.939 6.827-13.483 0-24.363-10.923-24.363-24.363 0-6.571 2.603-12.544 6.869-16.939l250.965-250.965h-623.829c-13.483 0-24.363-10.923-24.363-24.363s10.923-24.363 24.363-24.363v0h623.829l-250.965-250.965c-4.608-4.437-7.424-10.667-7.424-17.536 0-13.483 10.923-24.363 24.363-24.363 6.869 0 13.099 2.859 17.536 7.424l292.565 292.565c4.395 4.395 7.125 10.496 7.125 17.237s-2.731 12.843-7.125 17.237v0z" />
<glyph unicode="&#xe5c9;" glyph-name="cancel" d="M512 0c-255.839 0-463.238 207.399-463.238 463.238s207.399 463.238 463.238 463.238c255.839 0 463.238-207.399 463.238-463.238v0c-0.3-255.719-207.519-462.938-463.209-463.238h-0.029zM512 877.714c-228.909 0-414.476-185.567-414.476-414.476s185.567-414.476 414.476-414.476c228.909 0 414.476 185.567 414.476 414.476v0c-0.272 228.799-185.677 414.204-414.45 414.476h-0.026zM685.762 265.070c-0.009 0-0.019 0-0.029 0-6.723 0-12.809 2.73-17.208 7.142l-156.525 156.552-156.526-156.549c-4.428-4.516-10.593-7.315-17.411-7.315-13.464 0-24.379 10.915-24.379 24.379 0 6.819 2.799 12.983 7.311 17.408l156.53 156.553-156.526 156.548c-4.308 4.394-6.967 10.418-6.967 17.063 0 13.464 10.915 24.379 24.379 24.379 6.645 0 12.67-2.659 17.067-6.971l156.522-156.544 156.526 156.548c4.394 4.308 10.418 6.967 17.063 6.967 13.464 0 24.379-10.915 24.379-24.379 0-6.645-2.659-12.67-6.971-17.067l-156.522-156.544 156.526-156.548c4.411-4.412 7.139-10.506 7.139-17.238 0-13.464-10.913-24.379-24.376-24.381v0z" />
<glyph unicode="&#xe5ca;" glyph-name="check" d="M413.333 204.81c-0.001 0-0.003 0-0.004 0-6.731 0-12.824 2.73-17.234 7.142l-215.905 215.905c-4.308 4.394-6.967 10.418-6.967 17.063 0 13.464 10.915 24.379 24.379 24.379 6.645 0 12.67-2.659 17.067-6.971l198.473-198.496 403.238 411.096c4.429 4.501 10.586 7.29 17.394 7.29 13.474 0 24.397-10.923 24.397-24.397 0-6.631-2.645-12.644-6.938-17.041l0.005 0.005-420.474-428.666c-4.416-4.488-10.546-7.279-17.327-7.309h-0.006z" />
<glyph unicode="&#xe5cd;" glyph-name="close" d="M546.475 463.238l226.048 226.048c4.309 4.395 6.955 10.411 6.955 17.067 0 13.483-10.923 24.363-24.363 24.363-6.656 0-12.672-2.645-17.067-6.955l-226.048-226.048-226.048 226.048c-4.395 4.309-10.411 6.955-17.067 6.955-13.483 0-24.363-10.923-24.363-24.363 0-6.656 2.645-12.672 6.955-17.067l226.048-226.048-226.048-226.048c-4.523-4.437-7.296-10.581-7.296-17.408 0-13.483 10.923-24.363 24.363-24.363 6.827 0 12.971 2.816 17.408 7.296l226.048 226.048 226.048-226.048c4.395-4.309 10.411-6.955 17.067-6.955 13.483 0 24.363 10.923 24.363 24.363 0 6.656-2.645 12.672-6.955 17.067v0z" />
<glyph unicode="&#xe5d0;" glyph-name="fullscreen" d="M73.143 633.905c-0.004 0-0.009 0-0.014 0-13.457 0-24.367 10.909-24.367 24.367 0 0.005 0 0.010 0 0.015v-0.001 170.19c0.056 54.102 43.899 97.944 97.995 98h170.196c13.465 0 24.381-10.916 24.381-24.381s-10.916-24.381-24.381-24.381v0h-170.19c-27.179-0.037-49.202-22.060-49.238-49.235v-170.193c0-0.004 0-0.009 0-0.014 0-13.457-10.909-24.367-24.367-24.367-0.005 0-0.010 0-0.015 0h0.001zM950.857 633.905c-0.004 0-0.009 0-0.014 0-13.457 0-24.367 10.909-24.367 24.367 0 0.005 0 0.010 0 0.015v-0.001 170.19c-0.037 27.179-22.060 49.202-49.235 49.238h-170.193c-13.465 0-24.381 10.916-24.381 24.381s10.916 24.381 24.381 24.381v0h170.19c54.102-0.056 97.944-43.899 98-97.995v-170.195c0-0.004 0-0.009 0-0.014 0-13.457-10.909-24.367-24.367-24.367-0.005 0-0.010 0-0.015 0h0.001zM316.952 0h-170.19c-54.102 0.056-97.944 43.899-98 97.995v170.195c0 13.465 10.916 24.381 24.381 24.381s24.381-10.916 24.381-24.381v0-170.19c0.037-27.179 22.060-49.202 49.235-49.238h170.193c13.465 0 24.381-10.916 24.381-24.381s-10.916-24.381-24.381-24.381v0zM877.238 0h-170.19c-13.465 0-24.381 10.916-24.381 24.381s10.916 24.381 24.381 24.381v0h170.19c27.179 0.037 49.202 22.060 49.238 49.235v170.193c0 13.465 10.916 24.381 24.381 24.381s24.381-10.916 24.381-24.381v0-170.19c-0.056-54.102-43.899-97.944-97.995-98h-0.005z" />
<glyph unicode="&#xe5d1;" glyph-name="fullscreen-exit" d="M828.952 121.905c-0.009 0-0.019 0-0.029 0-6.723 0-12.809 2.73-17.209 7.142l-116.858 116.835-68.095-68.072c-4.412-4.411-10.507-7.139-17.238-7.139-13.464 0-24.379 10.914-24.381 24.377v0 170.667c0 0.004 0 0.009 0 0.014 0 13.457 10.909 24.367 24.367 24.367 0.005 0 0.010 0 0.015 0h170.666c13.464-0.002 24.378-10.917 24.378-24.381 0-6.732-2.728-12.826-7.139-17.238l-68.097-68.095 116.857-116.857c4.411-4.412 7.139-10.507 7.139-17.238 0-13.464-10.913-24.378-24.376-24.381v0zM633.905 341.333v-87.43l87.43 87.43zM195.048 121.905c-13.464 0.002-24.378 10.917-24.378 24.381 0 6.732 2.728 12.826 7.139 17.238l116.859 116.857-68.097 68.095c-4.411 4.412-7.139 10.507-7.139 17.238 0 13.464 10.914 24.379 24.377 24.381h170.667c0.004 0 0.009 0 0.014 0 13.457 0 24.367-10.909 24.367-24.367 0-0.005 0-0.010 0-0.015v0.001-170.667c-0.002-13.464-10.917-24.378-24.381-24.378-6.732 0-12.826 2.728-17.238 7.139l-68.095 68.097-116.857-116.859c-4.401-4.413-10.486-7.143-17.21-7.143-0.010 0-0.020 0-0.030 0h0.002zM302.665 341.333l87.43-87.43v87.43zM414.476 536.381h-170.667c-13.464 0.002-24.378 10.917-24.378 24.381 0 6.732 2.728 12.826 7.139 17.238l68.097 68.095-116.859 116.857c-4.235 4.38-6.844 10.354-6.844 16.938 0 13.465 10.916 24.381 24.381 24.381 6.584 0 12.558-2.609 16.945-6.851l116.852-116.825 68.095 68.072c4.412 4.411 10.507 7.139 17.238 7.139 13.464 0 24.379-10.914 24.381-24.377v0-170.667c0-0.004 0-0.009 0-0.014 0-13.457-10.909-24.367-24.367-24.367-0.005 0-0.010 0-0.015 0h0.001zM302.665 585.143h87.43v87.43zM780.19 536.381h-170.667c-0.004 0-0.009 0-0.014 0-13.457 0-24.367 10.909-24.367 24.367 0 0.005 0 0.010 0 0.015v-0.001 170.667c0.002 13.464 10.917 24.378 24.381 24.378 6.732 0 12.826-2.728 17.238-7.139l68.095-68.097 116.857 116.857c4.38 4.235 10.354 6.844 16.938 6.844 13.465 0 24.381-10.916 24.381-24.381 0-6.584-2.609-12.558-6.851-16.945l-116.85-116.85 68.096-68.095c4.411-4.412 7.139-10.507 7.139-17.238 0-13.464-10.913-24.378-24.376-24.381v0zM633.905 585.143h87.43l-87.43 87.43z" />
<glyph unicode="&#xe5d2;" glyph-name="menu" d="M804.565 341.339h-585.131c-13.483 0-24.363 10.923-24.363 24.363s10.923 24.363 24.363 24.363h585.131c13.483 0 24.363-10.923 24.363-24.363s-10.923-24.363-24.363-24.363zM804.565 536.369h-585.131c-13.483 0-24.363 10.923-24.363 24.363s10.923 24.363 24.363 24.363h585.131c13.483 0 24.363-10.923 24.363-24.363s-10.923-24.363-24.363-24.363zM804.565 731.441h-585.131c-13.483 0-24.363 10.923-24.363 24.363s10.923 24.363 24.363 24.363h585.131c13.483 0 24.363-10.923 24.363-24.363s-10.923-24.363-24.363-24.363zM804.565 146.267h-585.131c-13.483 0-24.363 10.923-24.363 24.363s10.923 24.363 24.363 24.363h585.131c13.483 0 24.363-10.923 24.363-24.363s-10.923-24.363-24.363-24.363z" />
<glyph unicode="&#xe5d3;" glyph-name="more-horiz" d="M780.19 463.238c0 13.463 10.918 24.381 24.381 24.381s24.381-10.918 24.381-24.381c0-13.463-10.918-24.381-24.381-24.381s-24.381 10.918-24.381 24.381zM731.429 463.238c0-40.394 32.748-73.143 73.143-73.143s73.143 32.748 73.143 73.143c0 40.396-32.748 73.143-73.143 73.143s-73.143-32.747-73.143-73.143zM487.619 463.238c0 13.463 10.918 24.381 24.381 24.381s24.381-10.918 24.381-24.381c0-13.463-10.918-24.381-24.381-24.381s-24.381 10.918-24.381 24.381zM438.857 463.238c0-40.394 32.747-73.143 73.143-73.143 40.394 0 73.143 32.748 73.143 73.143s-32.748 73.143-73.143 73.143c-40.396 0-73.143-32.747-73.143-73.143zM195.048 463.238c0 13.463 10.916 24.381 24.381 24.381s24.381-10.918 24.381-24.381c0-13.463-10.916-24.381-24.381-24.381s-24.381 10.918-24.381 24.381zM146.286 463.238c0-40.394 32.747-73.143 73.143-73.143s73.143 32.748 73.143 73.143c0 40.396-32.747 73.143-73.143 73.143s-73.143-32.747-73.143-73.143z" />
<glyph unicode="&#xe5d4;" glyph-name="more-vert" d="M512 731.428c-13.463 0-24.381 10.916-24.381 24.381s10.918 24.381 24.381 24.381c13.463 0 24.381-10.916 24.381-24.381s-10.918-24.381-24.381-24.381zM512 682.667c40.394 0 73.143 32.747 73.143 73.143s-32.748 73.143-73.143 73.143c-40.396 0-73.143-32.747-73.143-73.143s32.747-73.143 73.143-73.143zM512 438.857c-13.463 0-24.381 10.918-24.381 24.381s10.918 24.381 24.381 24.381c13.463 0 24.381-10.918 24.381-24.381s-10.918-24.381-24.381-24.381zM512 390.095c40.394 0 73.143 32.748 73.143 73.143s-32.748 73.143-73.143 73.143c-40.396 0-73.143-32.747-73.143-73.143 0-40.394 32.747-73.143 73.143-73.143zM512 146.286c-13.463 0-24.381 10.918-24.381 24.381s10.918 24.381 24.381 24.381c13.463 0 24.381-10.918 24.381-24.381s-10.918-24.381-24.381-24.381zM512 97.524c40.394 0 73.143 32.748 73.143 73.143s-32.748 73.143-73.143 73.143c-40.396 0-73.143-32.748-73.143-73.143s32.747-73.143 73.143-73.143z" />
<glyph unicode="&#xe5d5;" glyph-name="refresh" d="M828.971 439.814c-1.024 0.171-2.261 0.256-3.456 0.256-12.203 0-22.357-8.96-24.192-20.651v-0.128q-1.792-11.989-4.565-23.552c-31.275-131.072-147.413-227.029-285.909-227.029-162.133 0-293.547 131.413-293.547 293.547s131.413 293.547 293.547 293.547c97.664 0 184.192-47.701 237.568-121.045l0.597-0.853h-139.136c-13.483 0-24.363-10.923-24.363-24.363s10.923-24.363 24.363-24.363v0h195.029c0 0 0 0 0 0 13.44 0 24.363 10.923 24.363 24.363 0 0 0 0 0 0v0 195.029c0 13.483-10.923 24.363-24.363 24.363s-24.363-10.923-24.363-24.363v0-131.2c-62.976 79.616-159.573 130.261-268.032 130.261-188.245 0-340.864-152.619-340.864-340.864s152.619-340.864 340.864-340.864c160.512 0 295.083 110.933 331.264 260.309l0.469 2.347c2.133 9.088 3.925 18.304 5.291 27.605 0.171 1.067 0.256 2.304 0.256 3.584 0 12.203-8.96 22.315-20.693 24.064h-0.128z" />
<glyph unicode="&#xe5d8;" glyph-name="arrow-upward" d="M494.763 821.809l-292.565-292.565c-4.224-4.395-6.827-10.368-6.827-16.939 0-13.483 10.923-24.363 24.363-24.363 6.571 0 12.544 2.603 16.939 6.869l250.965 250.965v-623.829c0-13.483 10.923-24.363 24.363-24.363s24.363 10.923 24.363 24.363v0 623.829l250.965-250.965c4.437-4.608 10.667-7.424 17.536-7.424 13.483 0 24.363 10.923 24.363 24.363 0 6.869-2.859 13.099-7.424 17.536l-292.565 292.565c-4.395 4.395-10.496 7.125-17.237 7.125s-12.843-2.731-17.237-7.125v0z" />
</font>
</defs>
</svg>
